<?xml version="1.0" standalone="no"?>
<!DOCTYPE svg PUBLIC "-//W3C//DTD SVG 1.1//EN" "http://www.w3.org/Graphics/SVG/1.1/DTD/svg11.dtd" >
<svg xmlns="http://www.w3.org/2000/svg">
<metadata>Generated by IcoMoon</metadata>
<defs>
<font id="icomoon" horiz-adv-x="1024">
<font-face units-per-em="1024" ascent="960" descent="-64" />
<missing-glyph horiz-adv-x="1024" />
<glyph unicode="&#x20;" horiz-adv-x="512" d="" />
<glyph unicode="&#xe900;" glyph-name="icon_curriculum_address" d="M674.058 613.635c0 86.613-72.589 156.815-162.124 156.815s-162.118-70.202-162.118-156.815c0-86.586 72.583-156.794 162.118-156.794s162.124 70.207 162.124 156.794zM392.21 611.238c0 63.942 53.617 115.797 119.724 115.797 66.133 0 119.724-51.855 119.724-115.797s-53.59-115.799-119.724-115.799c-66.1 0-119.724 51.857-119.724 115.799zM511.934 45.556c0 0 389.061 381.545 389.061 570.652 0 189.128-174.206 342.398-389.061 342.398-214.848 0-389.054-153.27-389.054-342.398 0-189.106 389.054-570.652 389.054-570.652zM511.934 914.711c187.297 0 339.165-135.597 339.165-302.874 0-167.302-339.165-504.834-339.165-504.834s-339.159 337.531-339.159 504.834c0 167.277 151.862 302.874 339.159 302.874zM741.329 142.73l-33.586-31.961c21.987-13.53 35.001-28.632 35.001-43.193 0-41.217-99.811-87.282-233.413-87.282s-233.42 46.065-233.42 87.282c0 15.884 15.094 32.456 41.054 46.912l-30.439 34.182c-35.562-22.019-56.46-49.907-56.46-81.041 0-75.031 120.028-131.629 279.265-131.629 159.203 0 279.256 56.58 279.256 131.629-0.046 28.338-17.268 54.079-47.258 75.101z" />
<glyph unicode="&#xe901;" glyph-name="icon_curriculum_bmrs" d="M333.98 589.159c-11.672 11.672-30.813 11.672-42.605 0-11.672-11.678-11.672-30.813 0-42.605l212.786-212.786c11.672-11.674 30.807-11.674 42.605 0l425.446 425.567c11.672 11.672 11.672 30.811 0 42.605-11.672 11.672-30.813 11.672-42.605 0l-404.144-404.264-191.484 191.484zM970.163 672.562l-45.009-45.015c24.069-55.237 37.669-116.018 37.669-180.046 0-248.889-202.433-451.322-451.322-451.322s-451.322 202.433-451.322 451.322c0 248.889 202.433 451.322 451.322 451.322 118.91 0 226.864-46.577 307.622-122.037l42.485 42.485c-91.587 86.416-214.589 139.73-350.107 139.73-282.105 0-511.5-229.395-511.5-511.5 0-282.107 229.395-511.5 511.5-511.5 282.107 0 511.5 229.394 511.5 511.5 0 80.878-19.374 157.061-52.838 225.061z" />
<glyph unicode="&#xe902;" glyph-name="icon_curriculum_dianhua" d="M842.513 356.341c-26.122 4.84-75.046-39.327-75.046-39.327 139.883-87.989 139.534-194.832 139.534-194.832s31.82 15.841 48.503 43.048c16.683 27.201 22.387 59.308-18.164 115.536-40.617 56.301-68.64 70.602-94.828 75.575zM320.918 810.403c-26.436-2.841-60.263-59.421-60.263-59.421 159.632-43.434 190.714-145.682 190.714-145.682s27.067 34.774 35.060 65.62c7.953 30.815 2.638 52.928-52.694 94.924-55.297 42-86.347 47.466-112.817 44.559zM511.981 960c-282.296 0-511.981-229.694-511.981-512.033 0-282.273 229.685-511.967 511.981-511.967 126.726 0 242.114 47.015 331.591 123.626 9.593 1.899 35.432 9.444 29.827 36.085-6.791 32.699-57.338 138.211-135.057 184.583 0 0-29.334 17.479-54.961-14.377 0 0-40.048-14.45-127.531 70.546-87.485 85.070-166.668 149.557-138.038 236.142 0 0 12.816 46.305-95.076 107.729-107.857 61.532-115.74 22.486-121.060 6.522-5.247-15.964-35.074-75.593-12.81-133.667 18.13-47.289 76.593-167.459 248.587-331.465 144.336-137.434 233.325-190.361 302.289-191.843-67.632-37.142-145.21-58.496-227.76-58.496-262.901 0-476.801 213.831-476.801 476.581 0 262.817 213.899 476.653 476.801 476.653 262.907 0 476.805-213.835 476.805-476.653 0-2.889-0.42-5.71-0.493-8.599h35.214c0.073 2.889 0.493 5.71 0.493 8.599 0 282.339-229.718 512.033-512.019 512.033z" />
<glyph unicode="&#xe903;" glyph-name="icon_curriculum_dx" d="M353.486 434.144c0 0-0.027 0.028-0.027 0.055 0 0.045 0.027 0.078 0.027 0.106 0 12.902-10.805 23.378-24.161 23.378-87.649 0-158.939 73.711-158.939 164.334 0 90.608 71.29 164.34 158.939 164.34 13.356 0 24.161 10.46 24.161 23.378 0 12.92-10.805 23.38-24.161 23.38-114.28 0-207.257-94.702-207.257-211.098 0-77.626 41.469-145.432 102.932-182.106-130.559-44.669-225-170.484-225-318.624 0-12.926 10.805-23.38 24.167-23.38 13.352 0 24.157 10.454 24.157 23.38 0 159.618 126.045 289.449 281.001 289.449 13.356 0 24.161 10.444 24.161 23.407zM730.429 423.745c78.342 41.6 131.633 122.009 131.633 214.428 0 135.033-113.504 244.869-253.018 244.869-139.524 0-253.011-109.836-253.011-244.869 0-93.334 54.275-174.578 133.872-215.868-165.676-49.379-286.441-198.86-286.441-375.172 0-12.919 10.803-23.395 24.156-23.395 13.346 0 24.151 10.477 24.151 23.395 0 190.634 160.296 345.749 355.485 345.82 1.643-0.16 3.174 0.206 4.732 0.406 2.195-0.406 4.436-0.638 6.755-0.406 195.408-0.071 355.871-155.186 355.871-345.82 0-12.919 10.815-23.395 24.178-23.395 13.379 0 24.184 10.477 24.184 23.395 0 178.335-123.765 328.996-292.548 376.612zM609.044 440.101c-112.882 0-204.708 88.862-204.708 198.073 0 109.255 91.827 198.117 204.708 198.117 112.872 0 204.698-88.862 204.698-198.117 0-109.211-91.827-198.073-204.698-198.073z" />
<glyph unicode="&#xe904;" glyph-name="icon_curriculum_kecjj" d="M884.77 909.714h-75.635c-20.124 0-36.443-16.239-36.443-36.268s16.319-36.268 36.443-36.268h75.635c18.576 0 33.699-15.053 33.699-33.539v-126.636h-813.587v126.636c0 18.486 15.125 33.539 33.699 33.539h75.604c20.124 0 36.441 16.239 36.441 36.268s-16.317 36.268-36.441 36.268h-75.604c-58.772 0-106.582-47.588-106.582-106.074v-750.34c0-58.476 47.81-106.058 106.582-106.058h746.188c58.773 0 106.583 47.582 106.583 106.058v750.34c0 58.486-47.81 106.074-106.583 106.074zM884.77 19.777h-746.188c-18.574 0-33.699 15.036-33.699 33.523v551.175h813.587v-551.175c0-18.487-15.124-33.523-33.699-33.523zM472.652 837.179h157.681c20.124 0 36.441 16.239 36.441 36.268s-16.317 36.268-36.441 36.268h-157.681c-20.124 0-36.441-16.239-36.441-36.268s16.317-36.268 36.441-36.268zM321.067 784.685c20.13 0 36.441 19.625 36.441 43.828v87.661c0 24.208-16.311 43.826-36.441 43.826-20.118 0-36.435-19.618-36.435-43.826v-87.661c0-24.203 16.317-43.828 36.435-43.828zM725.283 784.685c20.124 0 36.443 19.625 36.443 43.828v87.661c0 24.208-16.319 43.826-36.443 43.826s-36.441-19.618-36.441-43.826v-87.661c0-24.203 16.319-43.828 36.441-43.828zM780.71 457.143h-510.164c-20.13 0-36.441-16.239-36.441-36.268s16.311-36.268 36.441-36.268h510.164c20.124 0 36.441 16.239 36.441 36.268s-16.317 36.268-36.441 36.268zM780.71 256h-510.164c-20.13 0-36.441-16.235-36.441-36.268 0-20.022 16.311-36.263 36.441-36.263h510.164c20.124 0 36.441 16.241 36.441 36.263 0 20.032-16.317 36.268-36.441 36.268z" />
<glyph unicode="&#xe905;" glyph-name="icon_curriculum_kktime" d="M511.663 912.783c-256.472 0-465.117-208.645-465.117-465.117 0-256.477 208.645-465.122 465.117-465.122 256.477 0 465.122 208.645 465.122 465.122 0 256.472-208.645 465.117-465.122 465.117zM511.663 21.305c-235.088 0-426.355 191.267-426.355 426.36 0 235.088 191.267 426.355 426.355 426.355 235.093 0 426.36-191.267 426.36-426.355 0-235.093-191.267-426.36-426.36-426.36zM753.575 392.755l-297.766-0.041v297.6c0 10.66-8.719 19.379-19.379 19.379-10.659 0-19.379-8.719-19.379-19.379 0 0-0.041-316.756-0.041-316.979 0-10.659 8.724-19.378 19.379-19.378l317.173 0.037c10.659 0 19.382 8.724 19.382 19.379 0.009 10.659-8.709 19.382-19.369 19.382z" />
<glyph unicode="&#xe906;" d="M1024 448c0-282.77-229.23-512-512-512s-512 229.23-512 512c0 282.77 229.23 512 512 512s512-229.23 512-512z" />
<glyph unicode="&#xe907;" d="M824.013 563.176c-5.782 16.462-215.837 31.173-215.837 31.173s-77.704 194.324-96.495 194.324c-18.789 0-96.53-194.324-96.53-194.324s-209.158-14.636-215.837-31.173c-6.682-16.535 156.186-151.273 156.186-151.273s-48.092-204.613-36.878-213.579c11.247-8.968 193.022 100.848 193.022 100.848s180.405-113.623 193.063-100.848c9.297 9.393-15.665 124.375-29.184 182.527-0.429 1.861-70.551-7.766-148.293-8.272-69.028-0.466-146.029 4.194-146.029 4.194l179.743 132.952c0 0-55.864 10.134-98.289 13.937-60.631 5.433-113.757 5.318-107.156 6.985 10.507 2.642 84.185 9.511 156.182 6.988 65.714-2.33 130.714-13.936 130.714-13.936l-179.74-127.363c0 0 39.257-6.017 71.843-7.261 62.072-2.367 137.823-0.659 137.667 0-2.305 9.742-4.333 22.827-4.333 22.827s161.964 134.816 156.182 151.273z" />
<glyph unicode="&#xe908;" glyph-name="icon_curriculum_ks" d="M717.519 650.904l-213.201-213.248-140.234 140.239c-9.985 9.984-26.216 9.984-36.201 0-9.985-9.985-9.985-26.217 0-36.201l140.239-140.235-40.191-40.191c-9.985-9.985-9.985-26.217 0-36.201 9.984-9.98 26.21-9.98 36.196 0l40.191 40.191 40.81-40.805c9.98-9.984 26.212-9.984 36.196 0s9.985 26.217 0 36.197l-40.805 40.809 213.195 213.195c9.985 9.985 9.985 26.217 0 36.201-9.984 10.033-26.216 10.033-36.196 0.048zM511.999 960c-282.777 0-511.999-229.223-511.999-512s229.222-512 511.999-512c282.778 0 512.001 229.223 512.001 512s-229.222 512-512.001 512zM537.598-11.111v126.312c0 14.131-11.466 25.598-25.598 25.598s-25.598-11.468-25.598-25.598v-126.312c-232.397 12.954-421.685 199.987-433.77 433.512h126.57c14.131 0 25.598 11.468 25.598 25.598s-11.468 25.598-25.598 25.598h-126.312c14.083 231.887 202.495 420.509 433.512 433.669v-126.469c0-14.131 11.468-25.598 25.598-25.598 14.132 0 25.598 11.468 25.598 25.598v126.415c231.070-13.16 419.484-201.782 433.567-433.615h-126.367c-14.131 0-25.598-11.468-25.598-25.598s11.468-25.598 25.598-25.598h126.57c-12.085-233.525-201.373-420.558-433.77-433.512z" />
<glyph unicode="&#xe909;" glyph-name="icon_curriculum_share" d="M860.698 279.963c-27.378 16.175-58.475 24.719-89.926 24.719-31.085 0-61.822-8.266-88.889-23.905-22.167-12.806-41.379-30.342-56.425-51.309l-215.548 127.315c23.627 42.427 29.848 91.717 17.483 138.925-4.039 15.422-9.916 30.019-17.417 43.549l215.482 127.28c15.046-20.967 34.259-38.502 56.425-51.313 27.067-15.641 57.804-23.906 88.889-23.906 31.451 0 62.548 8.546 89.932 24.72 41.672 24.614 71.481 64.359 83.939 111.914 12.452 47.559 6.063 97.228-18.001 139.862-16.104 28.54-39.372 52.15-67.279 68.274-27.068 15.645-57.804 23.911-88.89 23.911-31.451 0-62.547-8.55-89.925-24.719-80.238-47.398-111.361-148.837-74.889-233.694l-219.059-129.388c-12.349 13.826-26.834 25.79-43.144 35.422-27.379 16.175-58.475 24.721-89.932 24.721-31.079 0-61.822-8.266-88.889-23.906-27.907-16.13-51.169-39.734-67.274-68.281-24.065-42.634-30.454-92.302-18.002-139.857 12.457-47.555 42.267-87.3 83.94-111.919 27.378-16.169 58.474-24.714 89.93-24.719h0.011c31.079 0 61.811 8.266 88.879 23.911 16.633 9.61 31.597 21.898 44.398 36.282l219.131-129.432c-16.498-38.262-19.773-80.802-9.040-121.78 12.452-47.555 42.267-87.3 83.94-111.914 27.372-16.175 58.469-24.72 89.925-24.726h0.011c31.081 0 61.817 8.271 88.885 23.911 27.901 16.125 51.169 39.734 67.274 68.275 24.063 42.634 30.453 92.308 18.001 139.863-12.457 47.555-42.272 87.299-83.944 111.914zM702.463 896.439c20.726 12.243 44.24 18.712 68.009 18.712 48.629 0 93.916-26.732 118.204-69.758 18.203-32.261 23.038-69.848 13.617-105.828-9.425-35.982-31.979-66.055-63.517-84.679-20.722-12.242-44.24-18.713-68.010-18.713-48.624 0-93.916 26.728-118.197 69.759-37.584 66.597-15.2 152.055 49.894 190.507zM253.228 308.514c-23.769 0-47.288 6.47-68.009 18.712-31.533 18.623-54.092 48.698-63.512 84.679-9.426 35.986-4.59 73.567 13.619 105.828 24.281 43.031 69.574 69.759 118.197 69.759 23.769 0 47.288-6.471 68.010-18.713 31.531-18.624 54.090-48.697 63.511-84.677 9.426-35.988 4.59-73.569-13.617-105.83-24.283-43.029-69.575-69.763-118.199-69.758zM888.676 50.614c-24.288-43.031-69.575-69.765-118.204-69.759-23.769 0-47.287 6.471-68.009 18.713-31.533 18.624-54.086 48.697-63.512 84.677-9.421 35.988-4.585 73.569 13.619 105.83 24.281 43.024 69.574 69.758 118.203 69.758 23.765 0 47.283-6.47 68.010-18.712 31.531-18.624 54.086-48.699 63.511-84.685 9.421-35.98 4.586-73.562-13.617-105.823z" />
<glyph unicode="&#xe90a;" glyph-name="icon_curriculum_shoucang" d="M991.151 459.406c30.21 30.209 39.503 76.683 25.561 116.185-13.941 41.829-46.473 72.033-88.298 79.004l-185.897 32.532c-20.912 4.649-37.181 16.268-46.473 34.858l-88.303 171.952c-16.263 41.824-53.444 65.063-95.268 65.063-41.829 0-79.005-23.239-99.922-62.741l-85.975-171.951c-9.293-18.591-27.883-32.532-46.473-34.855l-185.893-32.531c-41.829-6.971-74.36-37.181-88.303-79.005-13.941-41.829-2.321-85.981 25.561-116.185l130.127-139.424c13.941-13.943 20.912-37.176 18.591-58.093l-27.883-192.863c-6.976-41.83 11.615-85.976 44.146-111.537 18.591-13.941 41.83-23.239 65.064-23.239 16.268 0 34.858 4.648 48.8 11.619l169.629 85.976c18.591 9.297 39.503 9.297 58.093 0l169.629-85.976c37.175-18.589 81.327-16.263 116.185 9.293 32.527 25.561 51.116 67.39 44.146 111.541l-25.561 192.864c-2.321 20.912 4.649 41.829 18.591 58.092l130.127 139.42zM828.492 354.84c-23.234-25.56-34.853-62.736-30.204-97.595l27.883-192.863c4.649-25.561-6.971-48.801-25.561-65.064-20.912-13.941-44.151-16.268-67.385-6.971l-169.629 85.976c-30.209 16.263-67.389 16.263-99.921 0l-169.629-85.976c-23.235-11.62-46.473-9.297-67.385 6.971-20.912 13.941-30.21 39.503-25.561 65.064l27.883 192.863c4.649 34.858-6.971 72.035-30.204 97.595l-130.127 139.425c-16.269 18.589-23.24 44.151-16.269 67.385 6.971 25.56 25.561 41.824 51.123 46.473l185.897 32.531c34.853 6.971 65.064 27.883 79.005 60.415l88.298 171.956c11.619 23.235 32.532 37.181 58.092 37.181 25.561 0 46.473-13.946 58.093-37.181l88.303-171.956c16.263-32.532 46.473-53.444 79.004-60.415l185.893-32.531c23.239-4.649 44.151-20.913 51.121-46.473s2.323-48.796-16.263-67.385l-132.454-139.425z" />
<glyph unicode="&#xe90b;" glyph-name="icon_curriculum_skls" d="M771.583 881.375h-2.021c-109.234 0-200.912 12.519-258.065 78.37-57.101-65.851-149.193-78.37-258.851-78.37-174.655 0-179.435-175.973-179.435-175.973 0-98.349-0.067-192.133-0.067-395.355 0-114.073 270.745-322.048 418.648-357.444 12.671-3.020 25.581-3.020 38.245-0.066 149.020 35.153 419.503 242.015 419.503 357.438v395.36c0.006 128.257-62.099 176.040-177.956 176.040zM886.881 309.98c0-65.483-214.615-248.175-351.696-290.845-15.725-4.867-32.734-4.867-48.403 0-137.209 42.85-350.976 225.547-350.976 290.912l-0.905 268.707 0.905 124.606c0.369 11.713 6.075 114.872 116.839 114.872 92.399 0 186.093 7.949 258.857 57.765 72.704-49.815 166.387-57.765 260.081-57.765 88.36 0 115.292-26.388 115.292-112.898v-395.355h0.006zM505.383 788.166c-103.253 0-188.906-82.898-188.906-185.15 0-102.242 84.725-192.629 187.974-192.629 103.259 0 187.862 90.387 187.862 192.629-0.006 102.252-83.687 185.15-186.93 185.15zM502.445 467.775c-73.133 0-132.423 59.735-132.423 133.416 0 73.722 59.29 133.428 132.423 133.428 73.162 0 132.453-59.706 132.453-133.428 0-73.682-59.291-133.416-132.453-133.416zM305.258 207.532l-59.514 0.039c0 146.081 123.836 252.368 271.315 252.368 87.741 0 158.892-29.803 209.964-94.522 0 0-32.175-33.246-36.9-38.136-12.099 9.571-54.331 79.14-173.064 79.46-99.613 0.416-211.801-79.292-211.801-199.209zM591.455 274.957l86.825-87.5 158.961 167.719-31.818 32.065-128.092-129.067-49.529 49.922-36.347-33.139z" />
<glyph unicode="&#xe90c;" glyph-name="icon_curriculum_starblue" d="M512 110.92l-316.433-174.92 60.433 370.487-256 262.38 353.783 54.053 158.217 337.080 158.217-337.080 353.783-54.053-256-262.38 60.433-370.487z" />
<glyph unicode="&#xe90d;" glyph-name="icon_curriculum_stargray" d="M512 110.92l-316.433-174.92 60.433 370.487-256 262.38 353.783 54.053 158.217 337.080 158.217-337.080 353.783-54.053-256-262.38 60.433-370.487z" />
<glyph unicode="&#xe90e;" d="M1024 448c0-282.77-229.23-512-512-512s-512 229.23-512 512c0 282.77 229.23 512 512 512s512-229.23 512-512z" />
<glyph unicode="&#xe90f;" d="M903.325 493.928c-54.602 20.665-96.090 54.7-123.051 101.157-6.447 10.937-11.117 21.253-14.751 30.519 5.892 3.335 10.958 8.703 14.111 15.372 8.006 17.62 0.779 38.665-16.354 47.102-17.287 8.465-37.801 0.939-45.934-16.687-8.252-17.682-1.016-38.669 16.472-47.186 4.307-1.934 8.85-3.253 13.638-3.335 3.787-10.22 9.044-22.173 16.261-34.796 20.089-34.86 59.586-82.163 133.271-110.086 4.639-1.667 9.525 0.451 11.641 4.81 0 0.292 0.194 0.472 0.298 0.929 1.616 4.962-0.724 10.234-5.601 12.199z" />
<glyph unicode="&#xe910;" d="M816.695 599.361c-3.177-4.082-2.501-10.112 1.463-13.361 3.977-3.249 9.931-2.489 13.011 1.582 4.866 6.307 8.864 13.278 12.463 20.577 24.77 53.046 2.612 117.046-49.248 142.252-51.888 25.325-114.188 2.608-138.795-50.618-24.693-53.236-2.534-117.021 49.356-142.336 14.859-7.247 31.372-10.753 47.663-10.378 5.208 0.266 9.27 4.629 9.044 9.92-0.083 5.247-4.435 9.343-9.588 9.235-13.448-0.545-26.865 2.416-39.22 8.35-42.771 20.855-60.955 73.245-40.409 116.935 20.151 43.925 71.247 62.471 113.89 41.615 42.77-20.556 60.827-73.14 40.527-116.83-2.716-6.016-6.18-11.863-10.157-16.943z" />
<glyph unicode="&#xe911;" d="M279.242 138.724c-9.505 104.985 12.099 201.142 63.722 280.343 12.144 18.74 24.607 37.028 36.109 49.633 9.931-7.046 21.85-11.235 34.795-11.235 33.716 0 60.74 27.814 60.74 62.419 0 34.42-27.024 62.235-60.74 62.235-33.543 0-60.834-27.793-60.834-62.235 0-8.895 1.807-17.342 5.066-24.94-13.021-14.1-27.399-31.813-41.425-53.313-38.963-59.166-82.525-164.376-70.145-305.868 0.811-8.701 7.858-20.255 16.163-20.255h1.633c8.95 0 15.639 14.013 14.915 23.216z" />
<glyph unicode="&#xe912;" d="M269.567 423.278c8.253 4.171 11.395 14.262 7.151 22.439-11.042 21.978-16.558 45.815-16.558 70.585 0 85.295 67.817 154.746 150.973 154.746 83.36 0 151.071-69.43 151.071-154.746 0-85.295-67.711-154.767-151.071-154.767-11.471 0-22.952 1.293-33.994 3.891-8.746 2.125-17.36-3.516-19.519-12.637-1.807-8.884 3.444-17.882 12.292-20.012 13.375-3.055 27.399-4.65 41.221-4.65 101.34 0 183.715 84.484 183.715 188.165 0.011 103.83-82.354 188.31-183.695 188.31-101.253 0-183.597-84.48-183.597-188.332 0-29.687 6.873-59.544 20.141-85.885 4.168-8.239 13.833-11.492 21.87-7.108z" />
<glyph unicode="&#xe913;" d="M1024 448c0-282.77-229.23-512-512-512s-512 229.23-512 512c0 282.77 229.23 512 512 512s512-229.23 512-512z" />
<glyph unicode="&#xe914;" d="M632.71 564.11c7.844 0 15.539-0.609 23.231-1.446-20.868 97.342-124.918 169.629-243.742 169.629-132.765 0-241.533-90.488-241.533-205.43 0-66.342 36.18-120.803 96.659-163.075l-24.146-72.665 84.396 42.35c30.237-6.017 54.46-12.114 84.623-12.114 7.543 0 15.082 0.384 22.545 0.993-4.723 16.145-7.464 33.056-7.464 50.574 0.078 105.572 90.64 191.185 205.429 191.185zM502.84 629.616c18.205 0 30.241-11.957 30.241-30.163 0-18.127-12.036-30.24-30.241-30.24-18.127 0-36.255 12.113-36.255 30.24-0.078 18.206 18.127 30.163 36.255 30.163zM333.746 569.213c-18.131 0-36.411 12.113-36.411 30.24 0 18.206 18.28 30.163 36.411 30.163 18.127 0 30.163-11.957 30.163-30.163 0-18.127-12.036-30.24-30.163-30.24z" />
<glyph unicode="&#xe915;" d="M853.144 375.822c0 96.58-96.659 175.263-205.2 175.263-114.941 0-205.429-78.684-205.429-175.263 0-96.737 90.488-175.267 205.429-175.267 24.068 0 48.365 6.095 72.513 12.109l66.265-36.255-18.127 60.326c48.443 36.411 84.549 84.622 84.549 139.087zM581.37 406.058c-12.035 0-24.145 11.961-24.145 24.146 0 12.035 12.11 24.145 24.145 24.145 18.281 0 30.241-12.11 30.241-24.145 0-12.184-11.96-24.146-30.241-24.146zM714.209 406.058c-11.958 0-23.992 11.961-23.992 24.146 0 12.035 12.035 24.145 23.992 24.145 18.131 0 30.241-12.11 30.241-24.145 0-12.184-12.11-24.146-30.241-24.146z" />
<glyph unicode="&#xe916;" d="M1024 448c0-282.77-229.23-512-512-512s-512 229.23-512 512c0 282.77 229.23 512 512 512s512-229.23 512-512z" />
<glyph unicode="&#xe917;" d="M427.567 308.293c-11.041-17.519-34.635-25.125-52.152-17.136-17.112 7.994-22.443 28.176-11.421 45.292 10.657 16.751 33.502 24.358 50.618 17.135 17.902-7.61 23.613-27.792 12.956-45.291zM463.33 354.351c-3.795-6.865-12.553-9.913-19.414-7.249-6.842 3.050-8.738 10.273-4.947 17.135 3.815 6.459 12.192 9.506 19.035 7.225 6.862-2.663 9.141-10.272 5.326-17.112zM529.548 313.623c22.849 50.999-5.326 103.516-61.274 117.984-53.662 13.684-114.169-12.957-137.763-60.144-23.594-48.334-0.768-102 53.665-119.499 56.328-18.263 122.546 9.89 145.372 61.659zM648.303 374.511c7.222-74.208-78.026-143.093-191.067-154.514-113.021-11.041-210.462 39.961-217.688 114.169-7.223 74.211 78.026 143.093 191.048 154.517 113.040 11.041 210.462-39.961 217.707-114.172zM765.522 372.998c0 51.746-43.395 81.051-82.589 93.242-9.525 3.028-15.984 4.944-11.038 17.5 10.654 27.405 11.786 50.999 0 67.75-22.081 31.587-82.589 30.051-151.853 0.748 0 0.384-21.694-9.506-16.367 7.991 10.657 34.25 9.141 63.193-7.61 79.538-37.677 37.681-137.762-1.129-223.779-87.145-64.321-64.322-101.619-132.436-101.619-191.431 0-113.041 144.628-181.539 286.205-181.539 185.333 0 308.65 107.714 308.65 193.346zM737.347 610.462c-21.698 24.36-54.030 33.502-83.717 27.024-12.191-2.663-19.798-14.448-17.135-26.641 2.279-12.169 14.472-19.778 26.641-17.112 14.472 3.047 30.071-1.535 40.729-13.32 10.657-11.808 13.704-27.792 9.122-42.244-3.795-11.805 2.663-24.358 14.472-28.172 11.804-3.795 24.36 2.663 28.153 14.468 9.528 28.923 3.431 62.019-18.263 85.997zM806.228 672.504c-44.907 49.85-110.742 68.497-172.013 55.561-14.088-3.047-23.21-16.731-20.163-30.819 3.028-14.085 17.116-23.207 31.203-20.182 43.393 9.144 90.192-4.176 122.163-39.578 31.967-35.014 40.345-83.329 26.641-125.593-4.179-13.684 3.431-28.153 17.135-32.716 13.681-4.582 28.153 3.047 32.716 16.732 19.031 59.375 7.245 127.128-37.682 176.595z" />
<glyph unicode="&#xe918;" glyph-name="icon_curriculum_yh" d="M511.998 960c-282.31 0-511.998-229.708-511.998-511.998 0-282.293 229.708-512.002 511.998-512.002 282.293 0 512.002 229.708 512.002 512.002 0 282.29-229.688 511.998-512.002 511.998zM511.998-21.569c-258.921 0-469.546 210.647-469.546 469.571 0 258.919 210.625 469.571 469.546 469.571 258.924 0 469.551-210.652 469.551-469.571 0-258.924-210.627-469.571-469.551-469.571zM611.72 439.304c48.086 32.19 79.785 87.003 79.785 149.221 0 99.123-80.361 179.482-179.484 179.482s-179.484-80.359-179.484-179.482c0-62.243 31.699-117.031 79.801-149.221-100.962-39.791-172.432-138.123-172.432-253.206 0-0.232 0-0.448 0.019-0.663 0-0.040-0.019-0.104-0.019-0.149 0-15.719 12.739-28.443 28.463-28.443 15.7 0 22.037 12.724 22.037 28.443 0 0.345-0.084 0.665-0.108 1.028 0.108 118.829 102.874 221.527 221.743 221.527 118.932 0 221.743-102.806 221.743-221.743 0-0.147-1.48-29.255 22.12-29.255 15.615 0 28.272 12.655 28.272 28.252 0 0.064-0.020 0.128-0.020 0.211 0 0.261 0.020 0.516 0.020 0.792-0.039 115.083-71.535 213.415-172.458 253.206zM511.998 452.84c-74.918 0-135.661 60.743-135.661 135.664 0 74.942 60.743 135.659 135.661 135.659 74.942 0 135.664-60.741 135.664-135.659 0-74.922-60.743-135.664-135.664-135.664z" />
<glyph unicode="&#xe91a;" glyph-name="icon_evaluate" d="M916.467 639.56c-14.17 0-28.339-14.359-28.339-28.723v-581.638c0-7.182-7.088-14.364-14.175-14.364h-779.487c-7.088 0-14.175 7.182-14.175 14.364v789.879c0 7.182 7.088 14.359 14.175 14.359h573.985c14.175 0 28.346 14.366 28.346 28.724 0 14.364-14.171 28.723-28.346 28.723h-573.985c-42.515 0-77.949-28.723-77.949-71.806v-789.879c0-43.089 35.434-78.988 77.949-78.988h779.487c42.515 0 77.949 35.899 77.949 78.988v581.638c-7.088 14.364-21.259 28.723-35.434 28.723v0zM1001.505 948.331c-14.171 14.36-28.346 14.36-42.516 0l-687.368-696.531c-14.175-14.36-14.175-28.724 0-43.083 7.088-7.182 14.171-7.182 21.259-7.182s14.175 0 21.257 7.182l687.368 696.533c7.088 7.177 7.088 28.717 0 43.082z" />
<glyph unicode="&#xe91b;" glyph-name="icon_evaluate_dzblue" d="M952.859 486.237l-1.025 4.855c-8.32 47.389-37.055 88.918-189.079 72.453-31.444-3.403-55.456 2.584-71.609 17.806-23.855 22.5-25.675 59.859-25.787 67.456 3.73 21.005 29.536 176.906-12.18 257.118-28.115 54.167-93.956 64.010-141.464 42.325-47.043-21.571-66.948-68.413-49.483-116.549 35.104-96.875-18.774-190.243-70.119-251.511-63.201-75.305-150.184-70.473-155.265-70.249h-107.557c-0.223 0-0.401-0.11-0.6-0.11-0.219 0-0.401 0.090-0.596 0.090-24.633-1.384-61.315-18.667-61.315-60.586v-351.772c-0.024-3.584 0.312-35.479 21.637-53.58 6.589-5.603 17.108-11.453 32.199-11.453 3.525 0 7.431 0.476 11.492 1.2 0.176 0.023 0.335-0.044 0.489-0.019 0.2 0.019 0.601 0.11 0.865 0.157h0.131c0.023 0 0.023 0 0.046 0.023 1.219 0.224 2.929 0.567 5.433 1.158 84.168 19.005 126.643 6.872 147.433-6.669 62.842-40.902 166.56-52.443 172.419-53.015l280.681-10.886c8.298-2.18 18.51-3.651 29.624-3.651 35.216 0 79.418 14.904 100.254 70.088 11.673 31.077 4.638 53.942-3.329 67.665-1.197 2.042-2.528 3.946-3.882 5.831 21.19 13.018 36.528 36.065 45.492 68.937 8.786 32.071 2.863 57.792-9.345 77.527 10.299 2.089 20.171 5.649 28.384 11.751 12.735 9.458 20.059 23.251 21.192 39.878 2.817 41.757-5.947 72.814-25.61 92.844 43.36 31.257 34.443 72.81 30.471 90.888z" />
<glyph unicode="&#xe91c;" glyph-name="icon_evaluate_dzgray" d="M952.859 486.237l-1.025 4.855c-8.32 47.389-37.055 88.918-189.079 72.453-31.444-3.403-55.456 2.584-71.609 17.806-23.855 22.5-25.675 59.859-25.787 67.456 3.73 21.005 29.536 176.906-12.18 257.118-28.115 54.167-93.956 64.010-141.464 42.325-47.043-21.571-66.948-68.413-49.483-116.549 35.104-96.875-18.774-190.243-70.119-251.511-63.201-75.305-150.184-70.473-155.265-70.249h-107.557c-0.223 0-0.401-0.11-0.6-0.11-0.219 0-0.401 0.090-0.596 0.090-24.633-1.384-61.315-18.667-61.315-60.586v-351.772c-0.024-3.584 0.312-35.479 21.637-53.58 6.589-5.603 17.108-11.453 32.199-11.453 3.525 0 7.431 0.476 11.492 1.2 0.176 0.023 0.335-0.044 0.489-0.019 0.2 0.019 0.601 0.11 0.865 0.157h0.131c0.023 0 0.023 0 0.046 0.023 1.219 0.224 2.929 0.567 5.433 1.158 84.168 19.005 126.643 6.872 147.433-6.669 62.842-40.902 166.56-52.443 172.419-53.015l280.681-10.886c8.298-2.18 18.51-3.651 29.624-3.651 35.216 0 79.418 14.904 100.254 70.088 11.673 31.077 4.638 53.942-3.329 67.665-1.197 2.042-2.528 3.946-3.882 5.831 21.19 13.018 36.528 36.065 45.492 68.937 8.786 32.071 2.863 57.792-9.345 77.527 10.299 2.089 20.171 5.649 28.384 11.751 12.735 9.458 20.059 23.251 21.192 39.878 2.817 41.757-5.947 72.814-25.61 92.844 43.36 31.257 34.443 72.81 30.471 90.888z" />
<glyph unicode="&#xe91d;" glyph-name="icon_evaluate_reply" d="M937.752 958.756h-852.502c-46.888 0-85.249-38.36-85.249-85.248v-682c0-46.888 38.361-85.254 85.249-85.254h42.623c25.576 0 42.63-17.048 42.63-42.623v-72.464c0-46.888 34.098-68.2 76.723-46.888l264.278 140.664c21.312 12.79 55.41 21.312 80.985 21.312h345.264c46.887 0 85.248 38.366 85.248 85.254v682c0 46.888-38.361 85.248-85.248 85.248zM724.625 362.005h-426.249c-25.576 0-42.625 17.050-42.625 42.625s21.312 42.625 42.625 42.625h426.249c25.575 0 42.623-17.048 42.623-42.625 0-25.575-21.312-42.625-42.623-42.625zM724.625 617.757h-426.249c-25.576 0-42.625 17.048-42.625 42.625 0 25.575 21.312 42.625 42.625 42.625h426.249c25.575 0 42.623-17.050 42.623-42.625 0-25.576-21.312-42.625-42.623-42.625z" />
<glyph unicode="&#xe91e;" glyph-name="icon_selected" horiz-adv-x="989" d="M47.080 361.498c0 0 262.857-107.46 393.522-339.807 156.935 287.529 458.18 555.728 547.42 575.566v350.923c-122.799-79.352-223.797-181.506-303.563-281.631-153.792-193.046-228.653-378.551-228.653-378.551l-189.161 196.938-219.566-123.438z" />
<glyph unicode="&#xe91f;" glyph-name="icon_navbar_denglu" d="M584.653 408.43c60.97 27.782 103.47 89.132 103.47 160.552 0 97.411-79.007 176.391-176.412 176.391-97.461 0-176.441-78.979-176.441-176.391 0-71.397 42.471-132.747 103.47-160.552-99.581-31.124-172.051-124.19-172.051-233.896 0-13.79 11.175-24.937 24.937-24.937 13.769 0 24.937 11.147 24.937 24.937 0 107.587 87.537 195.118 195.118 195.118 107.61 0 195.141-87.531 195.141-195.118 0-13.79 11.153-24.937 24.943-24.937s24.937 11.147 24.937 24.937c0.021 109.679-72.474 202.772-172.051 233.896zM385.171 568.961c0 69.773 56.76 126.51 126.56 126.51 69.781 0 126.539-56.737 126.539-126.51 0-69.802-56.758-126.589-126.539-126.589-69.801 0-126.56 56.787-126.56 126.589zM511.71-64c-282.154 0-511.71 229.557-511.71 511.733 0 282.126 229.556 511.71 511.71 511.71 282.176 0 511.732-229.557 511.732-511.71 0-282.176-229.556-511.733-511.732-511.733zM511.71 912.033c-256.044 0-464.329-208.285-464.329-464.3 0-256.017 208.285-464.323 464.329-464.323 256.039 0 464.346 208.306 464.346 464.323s-208.308 464.3-464.346 464.3z" />
<glyph unicode="&#xe920;" glyph-name="icon_navbar_grade" d="M185.96 132.46c-9.829 0-18.025 6.465-20.48 16.172l-104.86 445.512h-12.284c-27.035 0.81-48.335 22.642-48.335 49.326 0 26.68 22.12 48.512 49.97 48.512 27.035 0 49.97-21.832 49.97-49.321 0-6.47-1.635-13.744-4.095-20.214l-7.37-13.744 222.82-98.647 183.501 280.573-12.285 8.893c-13.11 8.893-21.3 24.256-21.3 40.428 0 26.679 22.121 49.321 49.97 49.321 27.855 0 49.97-21.832 49.97-49.321 0-16.172-8.189-31.535-21.294-40.428l-12.291-8.088 163.84-281.378 242.486 99.452-6.556 14.553c-2.459 6.47-4.095 12.94-4.095 19.409 0 26.68 22.116 49.321 49.97 49.321 27.035 0 49.97-21.832 49.97-49.321 0-26.684-22.12-49.326-49.97-49.326h-13.925l-104.859-446.322c-2.455-9.703-10.651-16.172-20.48-16.172h-647.986v0.81zM202.34 172.888h616.040l90.116 381.638-217.091-88.939c-2.46-0.81-4.915-1.62-8.189-1.62-7.375 0-13.93 4.043-18.025 9.703l-155.651 264.401-173.67-264.401c-4.095-5.66-10.65-9.703-17.199-9.703-3.281 0-5.736 0.81-8.195 1.62l-197.426 87.326 89.29-380.025zM152.37 18.451c-13.925 0-24.575 10.511-24.575 24.261 0 13.744 10.65 24.256 24.575 24.256h715.98c13.93 0 24.581-10.511 24.581-24.256 0-13.749-10.651-24.261-24.581-24.261h-715.98z" />
<glyph unicode="&#xe921;" glyph-name="icon_navbar_list" d="M839.54-28.277h-671.606c-92.68 0.1-167.795 74.565-167.934 166.479v618.536c0.106 91.927 75.241 166.418 167.934 166.484h671.668c92.684-0.066 167.805-74.565 167.872-166.484v-618.536c-0.139-91.914-75.254-166.379-167.934-166.479zM167.934 875.638c-66.118 0-119.89-53.39-119.89-118.899v-618.536c0-65.567 53.772-118.899 119.89-118.899h671.668c66.209 0.039 119.885 53.237 119.956 118.899v618.536c-0.106 65.648-53.762 118.832-119.956 118.899h-671.668zM791.563 637.779h-575.647c-8.574 0-16.492 4.536-20.777 11.897s-4.285 16.433 0 23.793c4.285 7.361 12.202 11.897 20.777 11.897h575.71c13.221 0 24.053-10.682 24.053-23.793-0.106-13.144-10.862-23.759-24.116-23.793zM791.563 423.647h-575.647c-13.249 0-23.99 10.653-23.99 23.793s10.741 23.792 23.99 23.792h575.71c13.221 0 24.053-10.676 24.053-23.792 0-13.111-10.895-23.793-24.116-23.793zM791.563 209.519h-575.647c-13.269 0-24.025 10.667-24.025 23.822 0 13.159 10.756 23.826 24.025 23.826h575.71c13.221 0 24.053-10.682 24.053-23.793-0.071-13.174-10.837-23.821-24.116-23.855zM359.797 590.193c-6.371-0.015-12.482 2.487-16.983 6.951-4.506 4.464-7.028 10.529-7.009 16.841v95.106c0 13.139 10.741 23.793 23.991 23.793s23.985-10.654 23.985-23.793v-95.106c0.020-6.312-2.503-12.377-7.004-16.841-4.506-4.464-10.617-6.966-16.981-6.951zM647.683 376.065c-6.375-0.020-12.496 2.482-17.007 6.946s-7.047 10.524-7.047 16.847v95.167c0 13.159 10.751 23.822 24.020 23.822s24.025-10.664 24.025-23.822v-95.105c0.015-6.323-2.508-12.392-7.009-16.866-4.496-4.474-10.612-6.99-16.981-6.99zM359.797 161.995c-13.265 0.034-23.991 10.706-23.991 23.855v95.044c0 13.139 10.741 23.793 23.991 23.793s23.985-10.654 23.985-23.793v-95.044c0.034-6.326-2.478-12.402-6.984-16.88-4.501-4.479-10.627-6.989-17.001-6.975z" />
<glyph unicode="&#xe922;" glyph-name="icon_navbar_search" d="M1000.603-31.701c-1.601 4.879-1.601 4.879-2.862 7.169-1.103 1.98-2.361 3.808-3.95 5.877-2.199 2.865-5.266 6.486-9.328 11.035-7.119 7.984-17.5 19.074-31.255 33.432-21.506 22.451-43.053 44.504-95.381 97.794-51.82 52.774-73.563 75.018-94.873 97.28-13.37 13.951-23.398 24.668-30.041 32.121-3.297 3.694-5.668 6.488-6.95 8.163 0.852-1.612 0.852-1.612 2.209-5.591 2.097-7.494 2.097-7.494-6.955-24.756 82.085 79.257 129.476 189.191 129.476 306.779 0 233.281-185.456 422.397-414.215 422.397-228.768 0-414.217-189.116-414.217-422.397 0-233.288 185.449-422.406 414.217-422.406 5.015 0 10.204 0.238 15.983 0.686 4.129 0.315 7.717 0.664 14.275 1.335 13.286 1.374 18.119 1.767 23.7 1.767 9.485 0 24.525 3.369 46.904 9.583 2.627 0.732 5.322 1.493 8.075 2.278 8.481 2.438 17.156 5.044 25.57 7.649 5.056 1.561 8.912 2.782 11.113 3.49 13.223 4.254 20.562 18.633 16.389 32.114-4.171 13.488-18.269 20.967-31.492 16.714-2.037-0.654-5.721-1.82-10.586-3.323-8.114-2.513-16.477-5.022-24.607-7.361-2.615-0.746-5.174-1.469-7.654-2.162-17.2-4.775-30.631-7.785-33.713-7.785-7.925 0-13.649-0.465-28.758-2.021-6.154-0.635-9.425-0.953-13.008-1.224-4.606-0.356-8.573-0.538-12.192-0.538-201.038 0-364.009 166.193-364.009 371.203 0 205.003 162.971 371.194 364.009 371.194 201.033 0 364.006-166.19 364.006-371.194 0-103.38-41.616-199.914-113.788-269.602-9.241-17.567-9.241-17.567-7.037-25.631 1.589-4.678 1.589-4.678 2.826-6.922 1.101-1.963 2.361-3.774 3.938-5.836 2.206-2.875 5.283-6.498 9.343-11.052 7.134-8.001 17.517-19.094 31.265-33.449 21.523-22.47 43.324-44.787 95.298-97.714 52.18-53.14 73.664-75.122 94.962-97.36 13.373-13.96 23.402-24.673 30.031-32.109 3.29-3.686 5.649-6.469 6.919-8.124-0.936 1.752-0.936 1.752-2.313 5.945-2.068 8.078-2.068 8.078 8.075 25.403-10.586-9.132-11.917-25.284-2.963-36.079 8.951-10.798 24.791-12.15 35.377-3.022 10.337 17.615 10.337 17.615 8.186 26.249z" />
<glyph unicode="&#xe923;" glyph-name="icon_navbar_shangcheng" d="M1023.265 528.928l-102.5 293.929-0.85 2.079c-16.495 34.873-39.425 67.148-95.011 67.148h-626.534c-55.585 0-78.505-32.275-95.011-67.148l-103.36-296.007 6.575-2.321h-3.816c0-49.171 39.73-89.163 88.55-89.163 9.020 0 17.72 1.384 25.93 3.917v-335.819c0-55.302 42.145-100.299 93.934-100.299h600.925c51.79 0 93.935 44.997 93.935 100.299v335.819c8.399-2.597 17.139-3.917 25.93-3.917 48.829 0 88.549 39.992 88.549 89.163h-3.814l6.565 2.321zM864.090 105.54c0-32.008-23.329-58.066-51.99-58.066h-600.925c-28.669 0-51.99 26.058-51.99 58.066v362.924h-0.89c1.070 1.235 2.075 2.523 3.069 3.821 16.21-21.134 41.545-34.827 70.056-34.827 28.509 0 53.844 13.693 70.054 34.827 16.21-21.134 41.545-34.827 70.056-34.827 28.509 0 53.844 13.693 70.054 34.827 16.215-21.134 41.545-34.827 70.056-34.827 28.515 0 53.844 13.693 70.060 34.827 16.21-21.134 41.54-34.827 70.056-34.827 28.509 0 53.855 13.693 70.054 34.827 16.21-21.134 41.545-34.827 70.056-34.827 28.509 0 53.844 13.693 70.054 34.827 0.995-1.298 2.010-2.578 3.069-3.821h-0.89v-362.924h-0.010zM931.955 479.677c-25.725 0.035-46.57 21.028-46.6 46.93h-46.906c-0.024-25.902-20.87-46.895-46.595-46.93-25.731 0.030-46.58 21.023-46.61 46.93h-46.895c-0.026-25.907-20.881-46.9-46.61-46.93-25.725 0.035-46.565 21.028-46.595 46.93h-46.906c-0.029-25.902-20.87-46.895-46.6-46.93-25.725 0.030-46.58 21.023-46.605 46.93h-46.895c0-25.876-20.91-46.93-46.61-46.93s-46.61 21.054-46.61 46.93h-46.89c0-25.876-20.91-46.93-46.61-46.93s-46.61 21.054-46.61 46.93h-46.89c0-25.876-20.91-46.93-46.61-46.93s-46.61 21.054-46.61 46.93h-1.060l98.054 281.172c15.415 32.225 28.771 42.081 56.666 42.081h626.545c27.89 0 41.26-9.857 56.666-42.071l98.049-281.172h-1.055c-0.020-25.912-20.876-46.916-46.61-46.94zM231.42 665.437h560.435v42.234h-560.435z" />
<glyph unicode="&#xe924;" glyph-name="icon_navbar_share" d="M238.128 177.487c0 0-0.799-6.010-0.314-9.397v-0.192c1.402-14.632 13.725-26.073 28.721-26.073 15 0 26.431 11.103 28.72 26.073l2.275 13.212c112.122 466.975 462.558 548.573 622.236 561.034l-161.3-150.515c-11.465-11.215-11.676-29.784-0.461-41.255s29.785-11.681 41.255-0.466l214.873 200.52c5.823 5.692 8.74 13.279 8.74 20.873 0.181 9.872-4.633 19.633-13.54 25.275l-262.077 158.794c-13.554 8.579-31.667 4.505-40.25-9.049-8.584-13.559-4.515-31.671 9.044-40.255l179.837-108.966c-559.005-53.412-647.534-543.76-657.759-619.613zM1022.877 390.571c0 16.117-13.064 29.171-29.176 29.171-16.107 0-29.171-13.055-29.171-29.171 0-0.143 0.010-0.28 0.010-0.422h-0.010v-300.045c0-25.073-9.872-48.754-27.809-66.691-17.936-17.928-41.613-27.81-66.685-27.81h-717.192c-25.074 0-48.755 9.882-66.692 27.81-17.926 17.936-27.804 41.618-27.804 66.691v637.417c0 25.078 9.877 48.759 27.804 66.691 17.931 17.931 41.618 27.809 66.692 27.809h187.117c16.108 0 29.171 13.059 29.171 29.176 0 16.108-13.059 29.171-29.171 29.171h-187.117c-84.060 0-152.843-68.779-152.843-152.847v-637.422c0-84.063 68.784-152.843 152.843-152.843h717.192c84.058 0 152.842 68.78 152.842 152.843v300.050h-0.014c0.005 0.142 0.014 0.279 0.014 0.422zM339.96 880.369v0z" />
<glyph unicode="&#xe925;" glyph-name="header_icon_left" horiz-adv-x="609" d="M79.956 466.049c-13.148-11.251-12.997-27.31 0.549-38.501l508.912-420.364c14.594-12.055 16.073-33 3.303-46.773s-34.946-15.177-49.543-3.122l-508.912 420.371c-45.139 37.286-45.733 99.629-1.464 137.508l509.922 436.241c14.367 12.298 36.569 11.269 49.588-2.297 13.027-13.566 11.934-34.525-2.433-46.823l-509.922-436.241z" />
<glyph unicode="&#xe926;" glyph-name="header_icon_right" horiz-adv-x="534" d="M464.102 436.701c11.537 11.405 11.404 27.683-0.481 39.027l-446.555 426.108c-12.805 12.22-14.104 33.451-2.898 47.412s30.664 15.384 43.473 3.164l446.555-426.116c39.608-37.796 40.129-100.99 1.285-139.387l-447.442-442.202c-12.606-12.466-32.088-11.423-43.512 2.328-11.431 13.751-10.471 34.997 2.135 47.463l447.441 442.202z" />
<glyph unicode="&#xe927;" glyph-name="icon_order_prompt" horiz-adv-x="878" d="M542.587 882.868c-13.3 45.216-53.193 77.132-101.069 77.132-47.875 0-90.431-34.575-101.073-82.456-148.944-45.21-255.331-183.518-255.331-340.444v-175.542c-50.54-31.92-85.114-90.431-85.114-148.949v-2.658c0-23.938 5.318-47.876 13.302-69.154l2.658-2.658c7.978-15.96 21.278-29.256 39.893-31.916 7.982-2.658 15.96-5.324 21.278-5.324h723.452c5.318 0 10.636 0 13.3 2.665 21.274 2.658 39.893 15.955 47.876 34.575 10.636 21.278 15.955 47.875 15.955 71.813v2.658c0 53.194-23.938 103.734-66.495 138.307v188.842c0 162.245-111.706 303.212-268.633 343.109zM827.18 212.61v-2.658c0-18.62-2.66-34.575-10.636-50.535 0-2.66-2.66-2.66-5.324-5.318-2.66 0-5.318 0-7.978-2.66h-726.111c-2.658 0-2.658 2.66-5.318 2.66-2.658 0-5.318 2.658-5.318 2.658v2.66c-5.318 15.96-10.642 31.915-10.642 47.875v2.66c0 47.875 26.602 90.431 69.154 111.711 7.982 5.318 15.96 13.295 15.96 23.937v191.502c0 138.307 98.409 260.655 231.398 292.569 13.296 2.665 21.278 13.302 21.278 26.602 0 26.596 21.278 47.876 47.875 47.876 26.598 0 47.876-21.28 50.535-47.876 0-10.642 10.636-21.278 21.278-23.937 140.967-26.603 244.695-148.95 244.695-295.234v-202.143c0-7.977 5.318-15.955 10.642-21.273 37.234-21.278 58.513-61.176 58.513-101.074zM550.565 47.706c0 15.96-10.636 26.596-26.596 26.596-15.956 0-26.598-13.295-26.598-26.596 0-31.915-23.937-55.853-55.853-55.853-31.92 0-55.857 23.938-55.857 55.853 0 15.96-10.638 26.596-26.598 26.596-15.955 0-26.596-13.295-26.596-26.596 0-61.171 47.875-109.046 109.051-109.046 61.171 0 109.047 47.875 109.047 109.046z" />
<glyph unicode="&#xe928;" glyph-name="icon_order_success" d="M839.55 586.369l-342.926-349.079c-20.499-20.833-47.961-32.498-77.369-32.804h-1.059c-28.988 0-56.269 11.132-76.92 31.344l-156.378 153.335c-14.461 14.165-14.651 37.344-0.515 51.776 14.175 14.423 37.354 14.68 51.776 0.515l156.378-153.344c6.839-6.734 15.968-10.397 25.659-10.397h0.372c9.844 0.114 18.992 3.959 25.812 10.874l342.917 349.107c14.165 14.432 37.354 14.537 51.776 0.477 14.461-14.165 14.642-37.354 0.477-51.805zM512.010 960c-282.804 0-512.010-229.225-512.010-512 0-282.756 229.206-512 512.010-512 282.832 0 511.99 229.244 511.99 512 0 282.775-229.187 512-511.99 512z" />
<glyph unicode="&#xe929;" glyph-name="icon_order_weixin" horiz-adv-x="1103" d="M420.34 320.897c-65.994-36.65-75.781 20.57-75.781 20.57l-82.709 192.243c-31.827 91.351 27.545 41.189 27.545 41.189s50.94-38.386 89.599-61.775c38.637-23.39 82.682-6.864 82.682-6.864l540.707 248.589c-99.756 123.641-264.552 204.486-451.113 204.486-304.473 0-551.269-215.148-551.269-480.562 0-152.668 81.719-288.542 209.010-376.61l-22.953-131.434c0 0-11.193-38.375 27.592-20.577 26.43 12.135 93.801 55.622 133.906 82.083 63.048-21.88 131.734-34.035 203.74-34.035 304.446 0 551.294 215.153 551.294 480.573 0 76.876-20.802 149.476-57.646 213.922-172.272-103.243-572.966-343.174-624.605-371.798z" />
<glyph unicode="&#xe92a;" horiz-adv-x="1843" d="M507.108 958.483h1273.433c41.666-12.221 53.695-39.869 49.093-76.192l-380.651-890.836c-20.924-28.741-50.507-47.9-92.732-52.891h-1318.858c-34.706 3.477-45.251 33.312-31.639 89.504l367.921 860.871c31.108 42.436 75.789 65.374 133.454 69.624l-0.021-0.080z" />
<glyph unicode="&#xe92b;" horiz-adv-x="1843" d="M508.402 958.483h376.55c-57.673-4.271-102.354-27.189-133.454-69.624l-367.86-860.791c-13.694-56.122-3.167-85.926 31.569-89.414h-376.601c-34.706 3.418-45.233 33.222-31.58 89.414l367.921 860.871c31.167 42.456 75.789 65.433 133.454 69.545z" />
<glyph unicode="&#xe92c;" horiz-adv-x="1843" d="M884.952 958.483h463.431c-57.675-4.271-102.346-27.189-133.454-69.624l-367.842-860.791c-13.684-56.122-3.157-85.926 31.58-89.414h-463.428c-34.716 3.418-45.243 33.222-31.58 89.414l367.86 860.871c31.097 42.436 75.779 65.374 133.454 69.624l-0.021-0.080z" />
<glyph unicode="&#xe92d;" horiz-adv-x="1843" d="M556.322 589.741h65.372l0.742-29.383h58.347v-56.954h-85.775c-14.025-23.667-41.414-33.202-70.307-26.075l-0.28 45.965c24.181 2.939 34.164 23.229 31.859 66.427l0.041 0.021zM1375.53 490.243h-48.503l-40.38 60.591c-3.529-2.056-4.481-9.244-8.010-11.259-5.895-3.357-11.128-0.883-17.023-4.24l0.39-265.634c16.843-10.966 11.3-25.092 12.522-41.994 13.474 2.695 21.976-1.455 35.419 1.252 7.658 26.265 24.802 56.402 33.694 84.34 2.056 6.457-0.983 13.374 0.801 19.43h-53.774l0.924 51.328 63.388-0.624c0 10.787 1.242 31.48 1.242 42.256h-65.554v52.363l190.446-3.108-0.611-49.393-62.767-2.176-1.252-42.567 59.98 0.921 0.3-46.606-63.439-0.883c-5.664 0-2.056-12.439-5.543-17.754v-4.109c8.089-0.983 17.844 3.057 25.254-3.118 6.816-5.685 2.587-19.869 8.21-29.252 9.814-16.281 12.853-37.826 40.842-40.703l-0.39-60.231h-41.573c-20.041 26.216-40.293 41.365-48.503 80.952l-8.069-4.109c-8.903-32.563-23.711-56.23-44.432-76.741h-60.56c-2.297 5.192 1.173 15.789 0.218 18.044-1.553 3.76-7.627-2.335-16.42 2.056-2.607-14.677 2.176-12.321-4.291-20.203-19.648 0.182-37.634-0.642-54.205 2.045-10.266 1.666 0.601 14.988-9.775 16.902-26.485 4.884-78.715 1.134-117.532 1.234v52.681c14.675 2.607 12.309-3.118 20.2 3.329v323.841c17.493-1.355 35.006-0.21 52.501-1.566 1.352-6.737-1.034-17.813 0.3-24.63 3.349 2.235 13.302-4.663 13.694-0.452 2.425 25.554 54.595 32.039 104.381 27.017 10.697-1.093-0.944 8.934 10.846 9.503 19.338 0.942 39.89 3.308 60.603 2.056 9.162-20.883 14.084-35.599 36.361-44.432v-56.541l0.090 0.182zM1428.021 587.174h56.551v-8.069c12.953-35.239-20.041-67.451-36.962-86.688l-47.53-0.311-0.352 53.695c20.531 3.798 21.394 7.448 28.272 21.122v20.211l0.021 0.041zM713.533 583.065h45.174l1.494-32.311c32.339 31.919 76.62 35.327 159.238 29.763l0.411-169.342c0-23.018-20.811-32.011-22.967-35.147l-143.209 1.412 0.652-121.805c3.991-7.086 8.972-12.57 15.419-12.529l41.063 0.269-0.613-56.482-88.138 0.352c-7.799 0.983-10.266 7.309-10.266 16.050l1.804 379.96-0.062-0.19zM1161.914 532.358c-9.714-20.531-10.486-43.118-9.793-77.265 23.698 2.528 36.962 10.879 49.735 24.232-1.363 17.482 1.101 34.896-0.231 52.35-12.111 0-27.589 0.683-39.71 0.683zM765.023 523.776v-51.128c4.109 4.111 9.914 5.795 13.964 9.835 33.304 28.19 46.547 13.463 74.919 21.104v20.211l-88.883-0.021zM520.703 461.892h165.603v-44.432h-64.612v-48.682h60.593v-52.291h-28.372c-12.984-25.051-34.026-54.444-28.282-84.81h44.432v-48.482l-76.741-4.101c-38.578 22.125-34.908 75.388-32.321 137.334h-44.402v52.432h44.422v48.68h-40.403v44.432l0.082-0.080zM853.924 419.284l1.014 24.15-86.237-0.37v-24.332l85.223 0.552zM1151.628 425.449v-68.541c17.495 4.111 32.853 8.071 50.286 12.121v56.602l-50.286-0.182zM886.545 361.019h39.941c-1.353-18.848-0.39-40.922-1.745-59.769-15.588-6.526-34.185-5.805-59.669-5.312v-12.573c6.347-19.969 2.056-38.676 22.318-46.627 8.559 8.751 18.486 7.13 36.962 7.168-1.353-18.848 0.511-37.693-0.821-56.541-33.484-0.821-60.141-3.449-75.74 6.896-41.453 27.489-31.308 96.502-50.859 158.707 1.355 2.687 4.111 5.384 5.425 8.071h44.42c4.111-10.776 3.95-22.456 7.992-33.225 18.234 0.862 21.312 3.78 31.87 8.993v24.212h-0.092zM1154.939 324.658v-64.633h44.509c-1.353 21.535 0 41.987-1.273 63.519-13.474 0-29.704 1.114-43.118 1.114h-0.118z" />
<glyph unicode="&#xe92e;" glyph-name="icon_order_zhifubao" d="M1023.053 258.655v503.673c-0.059 108.614-88.106 196.644-196.727 196.673h-629.654c-108.595-0.059-196.614-88.078-196.673-196.673v-629.654c0.029-108.61 88.064-196.644 196.673-196.673h629.654c95.215 0.067 176.741 68.243 193.658 161.941-52.175 22.605-278.258 120.2-396.058 176.469-89.615-108.595-183.527-173.762-325.005-173.762-141.483 0-235.956 87.161-224.599 193.859 7.468 69.975 55.497 184.4 264.033 164.809 109.976-10.336 160.254-30.844 249.922-60.463 23.171 42.561 42.454 89.361 57.083 139.132h-397.537v39.385h196.722v70.791h-239.946v43.321h239.892v102.049c0 0 2.152 15.956 19.796 15.956h98.361v-118.005h255.75v-43.37h-255.75v-70.692h208.644c-17.995-74.498-46.537-146.045-84.756-212.479 60.61-21.99 336.463-106.287 336.463-106.287h0.054zM283.268 168.172c-149.513 0-173.141 94.37-165.215 133.804 7.825 39.283 51.151 90.537 134.269 90.537 95.497 0 181.073-24.449 283.78-74.474-72.122-93.912-160.762-149.867-252.834-149.867z" />
<glyph unicode="&#xe92f;" glyph-name="icon_telephone_little" d="M815.123 355.795c-25.535 4.751-73.36-38.603-73.36-38.603 136.74-86.37 136.399-191.248 136.399-191.248s31.105 15.55 47.414 42.256c16.308 26.701 21.884 58.217-17.755 113.411-39.704 55.265-67.098 69.303-92.698 74.185zM305.246 801.505c-25.842-2.788-58.91-58.328-58.91-58.328 156.045-42.635 186.43-143.003 186.43-143.003s26.459 34.134 34.272 64.413c7.774 30.248 2.579 51.955-51.51 93.178-54.055 41.227-84.407 46.593-110.283 43.74zM503.235 959.063c-277.474 0-503.235-224.282-503.235-499.968 0-275.621 225.761-499.903 503.235-499.903 124.562 0 237.978 45.908 325.926 120.713 9.43 1.854 34.827 9.221 29.318 35.235-6.675 31.929-56.359 134.954-132.75 180.234 0 0-28.833 17.067-54.022-14.038 0 0-39.364-14.11-125.353 68.884-85.99 83.065-163.821 146.033-135.68 230.578 0 0 12.597 45.214-93.452 105.19-106.015 60.082-113.762 21.956-118.992 6.368-5.157-15.588-34.475-73.812-12.591-130.517 17.82-46.175 75.284-163.513 244.34-323.654 141.871-134.195 229.339-185.875 297.125-187.322-66.477-36.267-142.729-57.118-223.869-57.118-258.41 0-468.656 208.792-468.656 465.35 0 256.624 210.245 465.421 468.656 465.421 258.416 0 468.66-208.797 468.66-465.421 0-2.821-0.412-5.576-0.484-8.396h34.613c0.072 2.821 0.484 5.576 0.484 8.396 0 275.686-225.793 499.968-503.273 499.968z" />
<glyph unicode="&#xe930;" glyph-name="icon_delete" d="M723.463 231.343c-0.011-0.011-0.022-0.017-0.033-0.022-14.219-14.223-37.258-14.24-51.499-0.028l-164.365 164.048-164.059-164.349c-0.006-0.011-0.011-0.022-0.022-0.033-14.213-14.212-37.264-14.229-51.499-0.022-14.258 14.223-14.28 37.295-0.067 51.535l164.059 164.36-164.371 164.048c-14.241 14.212-14.263 37.278-0.045 51.513 0.006 0.011 0.011 0.022 0.028 0.028 14.191 14.196 37.236 14.207 51.477 0.006l164.365-164.054 164.081 164.393c14.219 14.212 37.258 14.229 51.516 0 14.236-14.207 14.263-37.273 0.050-51.518l-164.065-164.36 164.376-164.043c14.236-14.218 14.263-37.278 0.072-51.502zM983.742 647.312c-25.789 60.973-62.708 115.719-109.721 162.735-47.008 47.005-101.758 83.922-162.735 109.703-63.147 26.705-130.207 40.25-199.264 40.25-69.102 0-136.161-13.545-199.314-40.25-60.977-25.781-115.726-62.698-162.74-109.703-47.008-47.016-83.927-101.762-109.721-162.735-26.701-63.137-40.247-130.198-40.247-199.323 0-69.103 13.545-136.163 40.247-199.301 25.794-60.973 62.713-115.724 109.721-162.73 47.014-47.011 101.763-83.922 162.74-109.709 63.153-26.711 130.212-40.25 199.314-40.25 69.057 0 136.117 13.533 199.269 40.25 60.977 25.787 115.721 62.698 162.735 109.709 47.008 47.005 83.927 101.757 109.716 162.73 26.707 63.137 40.258 130.198 40.258 199.301-0.006 69.131-13.551 136.175-40.258 199.323z" />
<glyph unicode="&#xe931;" glyph-name="icon_password" horiz-adv-x="970" d="M491.487 486.337c-65.28 62.332-67.666 165.782-5.333 231.056s165.782 67.666 231.056 5.333c65.28-62.332 67.666-165.782 5.333-231.056s-165.782-67.666-231.056-5.333zM686.175 526.399c43.156 45.193 41.499 116.811-3.694 159.961-45.187 43.155-116.805 41.499-159.961-3.689-43.155-45.193-41.499-116.811 3.695-159.961 45.187-43.155 116.805-41.509 159.96 3.689zM446.922 275.839l-116.694-122.206c30.131-28.773 31.232-76.509 2.459-106.638-28.777-30.137-76.508-31.237-106.638-2.465l-67.104-60.969c0 0-79.046-12.761-115.408 21.962-36.368 34.728-43.537 129.606-43.537 129.606l283.268 296.982c-72.634 135.22-54.322 307.173 57.42 424.192 41.988 43.968 92.378 74.914 146.206 93.176l1.252-53.199c-40.752-16.19-78.837-40.926-111.091-74.705-92.288-96.651-110.489-236.694-56.835-350.771l26.532-45.030-282.712-296.068c0 0 0.678-57.229 19.823-75.509 17.117-16.348 71.089-11.301 71.089-11.301l69.458 72.729 36.367-34.723c10.049-9.599 25.949-9.234 35.549 0.815 9.593 10.055 9.228 25.953-0.821 35.548l-36.372 34.734 179.891 188.384 44.85-25.852c116.424-48.331 255.477-23.696 347.772 72.961 119.86 125.523 115.273 324.474-10.257 444.338-38.619 36.88-84.227 61.89-132.328 75.302l-1.184 51.913c61.165-14.339 119.511-44.323 168.236-90.846 145.611-139.043 150.938-369.818 11.896-515.431-111.742-117.019-282.661-143.248-421.086-76.929z" />
<glyph unicode="&#xe932;" glyph-name="icon_top_arrow" horiz-adv-x="563" d="M73.959 466.049c-12.162-11.251-12.022-27.31 0.507-38.501l470.743-420.364c13.499-12.055 14.867-33 3.055-46.773s-32.325-15.177-45.827-3.122l-470.743 420.371c-41.753 37.286-42.303 99.629-1.354 137.508l471.678 436.241c13.289 12.298 33.826 11.269 45.869-2.297 12.050-13.566 11.039-34.525-2.25-46.823l-471.678-436.241z" />
<glyph unicode="&#xe933;" glyph-name="icon_wenzi" horiz-adv-x="10240" d="M260 49.778c0 21.333 5.333 49.333 16 84 2.667 8 4 14.667 4 20 8 69.334 12 150.666 12 244 0 10.667-1.333 13.333-4 8-26.667-10.667-62.666-32-108-64-48-32-85.333-53.333-112-64-13.333 0-22.667 8-28 24 0 5.333 4 10.667 12 16 2.667 0 5.333 1.333 8 4 2.667 5.333 20 29.333 52 72l4 4c5.333 8 13.333 12 24 12 5.333 0 9.333-5.333 12-16 0-5.333-4-13.333-12-24-5.333-8-8-13.333-8-16 24 13.333 69.333 38.666 136 76-5.333-2.667 1.333 1.333 20 12v16c-2.667 5.333-4 9.333-4 12 0 10.667 8 16 24 16s28-5.333 36-16v-52c5.333-56 0-137.333-16-244-2.667-18.667-4-33.333-4-44 8 0 14.667 2.667 20 8 50.667 42.667 114.666 114.666 192 216l4 4c2.667 5.333 5.333 8 8 8 0-16-6.667-33.333-20-52-10.667-13.333-25.333-33.333-44-60-37.334-53.334-66.667-93.333-88-120 21.333 2.667 66.666 14.667 136 36 34.667 48 53.333 89.333 56 124v84c-2.667 106.667-1.333 189.333 4 248 2.667 16-2.667 30.667-16 44-8 10.667-12 20-12 28 0 13.333 6.667 20 20 20 5.333 0 10.667-2.667 16-8 8-5.333 13.333-8 16-8l12 4c13.333 10.667 20-4 20-44 0-8-1.333-24-4-48-5.333-42.667-8-77.333-8-104 24 8 41.333 14.667 52 20 2.667 2.667 9.333 6.667 20 12 37.334 26.667 62.667 40 76 40s20-9.333 20-28c2.667-5.333 0-9.333-8-12-5.333-5.333-18.667-12-40-20s-37.333-16-48-24c-21.333-18.667-42.667-28-64-28-5.333 0-8-1.333-8-4v-180c0-32-9.333-61.333-28-88 128.001 29.334 238.666 45.333 332 48 42.667-2.667 65.333-17.333 68-44 0-18.667-6.667-28-20-28-8 0-18.667 2.667-32 8-8 2.667-14.667 4-20 4-114.667 13.333-241.333-1.333-380-44-93.334-32-162.666-52-208-60-5.333-2.667-13.333-10.667-24-24-16-18.667-28-28-36-28-16 2.667-25.333 9.333-28 20zM308 665.778c0 8 9.333 18.667 28 32l16 16c-13.333 8-33.333 21.333-60 40-10.667 5.333-17.333 9.333-20 12-5.333 5.333-8 12-8 20 5.333 29.334 20 45.333 44 48 5.333 0 8-2.667 8-8-2.667-2.667-5.333-6.667-8-12s-4-10.667-4-16c0-13.333 17.333-24 52-32 45.334-8 68-24 68-48 2.667-10.667-1.333-18.667-12-24-2.667 0-10.667-1.333-24-4-8 0-18.667-5.333-32-16s-25.333-16-36-16c-8 0-12 2.667-12 8zM1392 145.778c-5.333-53.334-18.667-93.333-40-120-2.667-2.667-8-4-16-4-13.333 0-34.666 13.333-64 40-10.667 8-17.333 13.333-20 16-5.333 10.667-17.333 25.333-36 44-5.333 5.333-5.333 13.333 0 24 2.667 5.333 6.667 5.333 12 0 56-45.334 85.333-68 88-68 13.333 2.667 21.333 32 24 88v8c2.667 45.334 1.333 85.333-4 120-40-32-92-73.333-156-124-34.667-32-60-50.667-76-56-16 2.667-22.667 12-20 28 24 53.334 50.666 80 80 80l4-4c8-2.667 13.333-2.667 16 0 58.667 42.667 108 80 148 112-2.667 21.333-10.667 45.333-24 72 0 2.667-5.333 9.333-16 20-8 10.667-13.333 16-16 16-8 8-5.333 26.667 8 56 18.667 40 46.667 88 84 144-16-5.333-54.666-30.666-116-76-29.333-21.333-45.333-32-48-32-13.333 5.333-21.333 13.333-24 24 2.667 2.667 6.667 5.333 12 8 16 18.667 25.333 29.333 28 32s5.333 6.667 8 12c5.333 16 12 24 20 24 2.667 0 5.333-1.333 8-4 0-2.667 2.667-4 8-4 29.334 8 78.666 38.666 148 92 0 5.333-1.333 12-4 20-2.667 13.333-4 24-4 32 0 10.667 6.667 16 20 16 48-10.667 74.667-28 80-52 0-8-16-28-48-60-13.333-10.667-21.333-18.667-24-24-2.667-2.667-12-14.667-28-36-18.667-21.333-29.333-34.667-32-40-2.667-8-10.667-21.333-24-40-21.333-32-32-56-32-72 0-5.333 4-12 12-20s12-13.333 12-16c2.667-2.667 5.333-6.667 8-12 13.333-21.333 21.333-38.667 24-52 8 8 20 16 36 24 13.333 10.667 21.333 17.333 24 20 32 21.333 62.667 38.667 92 52 8 16 29.333 46.666 64 92 13.333 18.667 22.667 32 28 40-72-50.667-128-76-168-76-29.334 0-44 9.333-44 28 2.667 16 8 29.333 16 40 61.334 72 110.666 122.666 148 152l12 12c29.333 21.333 49.333 37.333 60 48 0 2.667 1.333 8 4 16-2.667 2.667-16 10.667-40 24-56 24-84 44-84 60 2.667 13.333 9.333 18.667 20 16 21.333-16 48-29.333 80-40 8-5.333 20-9.333 36-12 34.667 0 50.667-16 48-48 0-8-8-17.333-24-28-5.333-2.667-14.667-9.333-28-20-42.667-32-74.667-54.667-96-68-61.334-45.334-97.333-90.666-108-136 24 0 46.667 5.333 68 16 8 5.333 28 16 60 32 61.334 34.667 94.667 53.333 100 56 10.667 2.667 32 16 64 40 53.334 26.667 86.667 40 100 40s20-8 20-24c2.667-8 0-13.333-8-16-10.667-5.333-26.667-10.667-48-16-24-8-44-16-60-24-34.667-24-69.333-58.666-104-104-5.333-8-13.333-18.667-24-32-21.333-29.334-46.667-69.333-76-120 21.333 2.667 49.333 16 84 40 8 5.333 14.667 9.333 20 12 18.667 13.333 28 24 28 32v52c0 8 9.333 13.333 28 16 2.667-2.667 6.667-5.333 12-8 18.667-16 28-29.333 28-40 0-16-16-44-48-84-10.667-10.667-17.333-18.667-20-24-32-50.667-54.667-90.667-68-120 90.667 56 160 88 208 96 18.667 0 28-12 28-36 0-2.667-2.667-8-8-16-5.333-2.667-8-5.333-8-8-2.667-2.667-6.667-8-12-16-32-40-69.333-90.666-112-152 96.001-5.333 172-28 228-68 18.667-13.333 28-26.667 28-40-2.667-16-10.667-25.333-24-28-48 16-76 29.333-84 40 2.667 5.333 4 9.333 4 12-18.667 21.333-73.333 36-164 44-18.667 0-30.667-2.667-36-8-101.334-69.334-166.666-104-196-104h-8c-5.333-2.667-8-1.333-8 4 0 2.667 20 16 60 40 24 13.333 38.667 21.333 44 24 16 10.667 30.667 24 44 40v12c-2.667 2.667-4 5.333-4 8 18.667 5.333 37.333 13.333 56 24 56 66.667 101.333 128 136 184-10.667 10.667-81.333-26.666-212-112-32-26.667-62.667-56-92-88-24-8-36 0-36 24 50.667 40 109.333 117.333 176 232-13.333 0-33.333-8-60-24s-48-24-64-24c-16 0-24 8-24 24 8 18.667 16 33.333 24 44-34.667-26.667-70.666-52-108-76 8-42.667 12-104 12-184zM2268 285.778c-21.333-13.333-44-20-68-20-29.334-2.667-44 5.333-44 24 5.333 8 17.333 12 36 12 10.667 0 18.667 1.333 24 4 114.667 40 234.666 74.666 360 104-10.667 34.667-28 65.333-52 92-8 5.333-16 8-24 8-16 2.667-30.667 9.333-44 20v4c0 13.333 17.333 20 52 20 8 8 20 22.667 36 44 42.667 50.667 72 86.667 88 108 2.667 2.667 5.333 6.667 8 12-2.667 2.667-5.333 2.667-8 0-37.334 0-100-24-188-72-18.667-8-32-14.667-40-20-18.667-10.667-48-24-88-40l-24-12c-26.667-10.667-42.667-8-48 8 0 8 2.667 14.667 8 20 8 8 22.667 13.333 44 16 10.667 2.667 18.667 5.333 24 8 122.667 61.334 230.666 105.333 324 132 13.333 5.333 20 24 20 56 2.667 8 10.667 12 24 12 53.334-21.333 84-42.667 92-64-2.667-21.333-14.667-33.333-36-36l-4 4h-8c-45.334-40-108-100-188-180 37.334-40 62.667-82.666 76-128 80 16 148 24 204 24s84-10.667 84-32c-2.667-18.667-13.333-26.667-32-24-77.334 13.333-161.333 12-252-4 10.667-50.667 9.333-135.999-4-256 0-32-12-64-36-96-16-8-29.333-10.667-40-8-48 2.667-89.333 13.333-124 32-5.333 2.667-16 12-32 28v8c8 0 16-2.667 24-8l16-8c26.667-10.667 52-16 76-16 40 0 64 33.333 72 100 0 10.667 1.333 26.667 4 48 8 74.667 8 130.666 0 168-90.667-18.667-194.666-49.333-312-92zM3744 145.778c-8 21.333-5.333 24 8 8 50.667-48 96-80 136-96 18.667 2.667 28 33.333 28 92s-6.667 140-20 244c-8 56-13.333 97.333-16 124-5.333 21.333-12 68-20 140 0 16-9.333 22.667-28 20-58.667 0-149.333-32-272-96-21.333-13.333-38.667-18.667-52-16-16 0-24 8-24 24 0 26.667 14.666 49.333 44 68 8-5.333 12-14.667 12-28v-8c24 0 50.667 10.667 80 32 0 8-8 12-24 12-16 2.667-24 6.667-24 12 0 8 2.667 12 8 12h32c5.333 2.667 8 5.333 8 8 0 5.333-10.667 17.333-32 36-37.334 26.667-56 49.333-56 68 0 16 8 24 24 24 5.333 0 29.333-22.666 72-68s65.333-68 68-68c69.334 24 125.333 34.667 168 32 37.334-2.667 57.333-14.667 60-36 0-5.333-1.333-10.667-4-16v-8c-2.667-24 0-61.333 8-112 2.667-24 4-42.667 4-56 2.667-26.667 8-66.666 16-120 10.667-90.667 17.333-162.666 20-216-2.667-82.667-20-130.667-52-144-48 8-105.333 52-172 132zM3244 77.778c0 13.333 4 30.667 12 52 5.333 16 8 28 8 36 16 101.334 24 178.666 24 232v12c2.667 24-1.333 40-12 48-5.333 2.667-18.667-10.666-40-40-24-32-40-48-48-48-13.333 0-20 10.667-20 32 0 13.333 10.667 30.667 32 52 10.667 10.667 17.333 18.667 20 24 64 98.667 102.667 180 116 244 0 2.667-1.333 6.667-4 12-5.333 8-8 14.667-8 20 0 16 8 24 24 24 34.667-5.333 53.333-22.667 56-52 0-13.333-6.667-32-20-56-5.333-5.333-8-9.333-8-12-16-40-44-92-84-156 37.334-29.333 53.333-61.333 48-96-2.667-24-5.333-64-8-120-2.667-29.334-4-50.667-4-64 42.667 66.667 72 117.333 88 152 5.333 8 10.667 10.667 16 8s6.667-8 4-16c-10.667-40-34.666-92-72-156-24-40-40-70.667-48-92 0-2.667-1.333-8-4-16-10.667-34.667-22.667-52-36-52-21.333 2.667-32 12-32 28zM3428 85.778v20c0 16 4 38.667 12 68 5.333 18.667 8 33.333 8 44 5.333 34.667 8 80 8 136 0 72-1.333 122.666-4 152-29.334 10.667-44 22.667-44 36 2.667 8 10.667 13.333 24 16 40-2.667 64-13.333 72-32v-28c0-13.333-1.333-32-4-56v-48c0-8 2.667-16 8-24 2.667-5.333 4-9.333 4-12-10.667-181.334-28-278.667-52-292-13.333 2.667-24 9.333-32 20zM4900 5.778c-13.333 0-29.333 5.333-48 16-10.667 2.667-18.667 5.333-24 8-122.667 48-251.999 86.666-388 116l-36-36c-42.667-42.667-77.333-74.667-104-96-8-5.333-16-6.667-24-4-2.667 5.333-1.333 12 4 20 40 48 73.333 90.666 100 128-2.667 2.667-8 4-16 4-13.333 2.667-20 8-20 16 0 13.333 16 21.333 48 24h16c5.333 0 10.667 2.667 16 8 26.667 32 41.333 70.666 44 116-29.333 16-37.333 46.666-24 92 2.667 5.333 5.333 12 8 20 8 21.333 12 38.667 12 52-8-8-22.667-17.333-44-28l-36-24c-21.333-5.333-34.667 0-40 16 2.667 16 8 26.667 16 32 53.334 21.333 104 52 152 92-5.333 5.333-8 10.667-8 16 0 16 12 28 36 36 13.333 8 32 17.333 56 28 37.334 16 62.667 30.667 76 44v108c-13.333 0-25.333 8-36 24-5.333 5.333-6.667 9.333-4 12 21.333 10.667 44 18.667 68 24 21.333 0 29.333-14.666 24-44v-36c-2.667-29.333-2.667-52 0-68 8 0 24 5.333 48 16 5.333 2.667 9.333 4 12 4 18.667 8 36 6.667 52-4 42.667-13.333 60-33.333 52-60 26.667 0 40-9.333 40-28 0-13.333-6.667-22.667-20-28-8-5.333-22.667-13.333-44-24-50.667-18.667-80-41.333-88-68 2.667 0 8 1.333 16 4h12c21.333 2.667 32-9.333 32-36 0-8-16-22.667-48-44-34.667-24-53.333-41.333-56-52v-20c48 24 85.333 40 112 48 26.667-2.667 36-17.333 28-44-8-5.333-25.333-17.333-52-36-58.667-34.667-86.667-58.667-84-72v-20c8 2.667 20 8 36 16 16 5.333 26.667 9.333 32 12l16 8c10.667 2.667 16 8 16 16 2.667 10.667 9.333 14.667 20 12 26.667-13.333 42.667-29.333 48-48 0-8-13.333-14.667-40-20-2.667-2.667-5.333-4-8-4-56-13.333-98.666-28-128-44l-8-96c40-8 78.666-21.333 116-40 37.334-16 85.333-16 144 0 24 8 45.333 12 64 12 13.333 0 22.667-6.667 28-20 2.667-8-1.333-13.333-12-16-5.333-2.667-13.333-5.333-24-8-61.334-21.333-106.667-32-136-32zM4488 213.778c-5.333-8-12-17.333-20-28 8-2.667 21.333-5.333 40-8 13.333-5.333 22.667-8 28-8 72 48 118.667 85.333 140 112v4c2.667 10.667 2.667 17.333 0 20-10.667-2.667-25.333-9.333-44-20-16-8-28-13.333-36-16-24 2.667-32 13.333-24 32 8 10.667 22.667 22.667 44 36 37.334 24 56 48 56 72-10.667 0-25.333-5.333-44-16-16-8-26.667-12-32-12-13.333 2.667-21.333 9.333-24 20 0 16 20 33.333 60 52l4 4c10.667 5.333 22.667 18.667 36 40v36c-18.667-2.667-42.666-13.333-72-32-2.667-2.667-5.333-4-8-4-10.667-5.333-17.333-8-20-8-16 0-24 6.667-24 20 0 10.667 14.667 22.667 44 36 48 18.667 74.667 32 80 40v20c2.667 21.333 2.667 36 0 44-40-10.667-85.333-37.333-136-80 5.333-26.667-4-66.666-28-120-2.667-5.333-6.667-12-12-20-10.667-13.333-16-29.333-16-48 0-8 6.667-16 20-24 18.667-10.667 28-22.667 28-36-8-32-21.333-68-40-108zM4304 145.778c0-2.667-1.333-8-4-16 0-26.667-6.667-40-20-40-16 2.667-26.667 13.333-32 32 2.667 10.667 6.667 28 12 52 2.667 21.333 5.333 37.333 8 48 8 69.334 10.667 138.666 8 208 0 5.333-4 8-12 8-29.334-26.667-62.666-50.667-100-72-5.333-2.667-9.333-2.667-12 0-2.667 5.333-2.667 10.667 0 16 82.667 80 149.333 165.333 200 256 5.333 10.667 8 20 8 28s-4 17.333-12 28c-8 8-12 16-12 24 2.667 13.333 10.667 21.333 24 24 42.667-21.333 69.333-48 80-80 0-2.667-1.333-6.667-4-12l-4-8c-29.334-26.667-54.667-56-76-88-16-29.334-34.667-56-56-80 13.333-10.667 21.333-22.667 24-36v-116c0-8 4-18.667 12-32 5.333-10.667 8-18.667 8-24 0-18.667-8-44-24-76-8-18.667-13.333-33.333-16-44zM4724 673.778v-52c0-5.333 2.667-8 8-8 45.334 21.333 73.333 44 84 68 5.333 16 1.333 22.667-12 20-29.333-5.333-56-14.667-80-28zM4676 189.778c-32-8-60-20-84-36 10.667-2.667 32-9.333 64-20 5.333-2.667 9.333-4 12-4 5.333 21.333 8 41.333 8 60zM4760 577.778c-18.667-8-30.667-14.667-36-20 0-10.667-1.333-22.667-4-36 2.667 0 10.667 12 24 36l16 20zM6012 553.778c0-13.333-9.333-22.667-28-28-24-5.333-46.667-10.667-68-16-21.333-26.667-49.333-61.333-84-104 13.333-24 14.667-40 4-48-13.333-5.333-30.667-10.667-52-16-32-8-56-16-72-24 2.667-29.334 6.667-80 12-152 2.667-40 5.333-70.667 8-92 0-77.334-12-120-36-128-18.667-2.667-49.333 16-92 56-8 2.667-12 6.667-12 12 2.667 8 8 9.333 16 4 2.667-2.667 8-5.333 16-8 16-8 30.667-12 44-12 2.667 0 4 1.333 4 4 2.667 5.333 4 9.333 4 12 5.333 53.334 2.667 110.666-8 172-104.001-88-177.333-133.333-220-136-26.667 0-38.667 9.333-36 28 8 10.667 20 24 36 40 32 32 52 57.333 60 76-16 5.333-22.667 13.333-20 24 0 13.333 6.667 20 20 20 21.333-2.667 40-9.333 56-20s14.667-25.333-4-44c-5.333-5.333-17.333-14.667-36-28-26.667-13.333-41.333-25.333-44-36-2.667-8 0-10.667 8-8 42.667 21.333 102.666 57.333 180 108-2.667 26.667-4 56-4 88-32-10.667-65.333-26.667-100-48-21.333-13.333-36-8-44 16 0 5.333 4 13.333 12 24l8 8c21.333 16 61.333 45.333 120 88v36c-16-10.667-30.667-18.667-44-24-32-13.333-52-8-60 16 2.667 8 12 13.333 28 16 24 8 50.666 18.667 80 32 0 8 1.333 18.667 4 32v32c-5.333-2.667-12-6.667-20-12-8-2.667-18.667-9.333-32-20-26.667-10.667-44-5.333-52 16-2.667 8 6.667 16 28 24 24 13.333 52 25.333 84 36l4 24c0 8-4 14.667-12 20-8 2.667-12 6.667-12 12 10.667 18.667 37.333 34.667 80 48 18.667 0 28-8 28-24 0-5.333-4-12-12-20-8-10.667-13.333-21.333-16-32v-8c5.333 2.667 14.667 5.333 28 8 18.667 8 30.667 13.333 36 16 56 2.667 104-12 144-44 5.333 0 12 1.333 20 4h20c18.667 2.667 28-4 28-20zM5200 101.778c0 21.333 12 49.333 36 84l20 16c5.333 5.333 10.667 6.667 16 4 2.667-2.667 2.667-6.667 0-12 0-5.333-4-14.667-12-28-8-18.667-10.667-33.333-8-44 24 8 56 50.666 96 128 24 45.334 56 110.666 96 196 50.667 104.001 89.333 176 116 216-58.667-18.667-106.666-29.333-144-32-26.667 2.667-40 14.667-40 36 2.667 13.333 8 18.667 16 16 2.667 0 8-2.667 16-8s14.667-8 20-8c40 0 97.333 16 172 48 8 2.667 13.333 5.333 16 8 58.667 21.333 112 40 160 56 24 0 37.333-9.333 40-28-5.333-13.333-13.333-20-24-20-117.334-21.333-193.333-62.666-228-124-26.667-40-56-102.666-88-188-45.334-117.334-90.666-206.666-136-268-40-58.667-74.667-89.333-104-92-21.333 5.333-33.333 20-36 44zM5836 49.778l16 8c50.667 32 92 69.333 124 112-34.667-2.667-82.666-4-144-4-2.667 2.667-5.333 4-8 4l-8 16c0 16 20 53.333 60 112 0 2.667-2.667 6.667-8 12-5.333 10.667-8 18.667-8 24 2.667 8 8 12 16 12 42.667-8 65.333-20 68-36 0-16-12-34.667-36-56-21.333-18.667-32-34.667-32-48 18.667 0 44 2.667 76 8 34.667 2.667 60 4 76 4 37.334 2.667 50.667-10.666 40-40-58.667-64-120-110.667-184-140-26.667-8-42.667-4-48 12zM5564 797.778c0 5.333 6.667 9.333 20 12s20 8 20 16l-16 16c-32 24-48 42.667-48 56s6.667 20 20 20h4l8-8c16-16 28-26.667 36-32 5.333-2.667 14.667-6.667 28-12 42.667-10.667 62.667-26.667 60-48v-4c2.667-5.333 1.333-9.333-4-12-2.667-5.333-13.333-8-32-8-10.667-2.667-30.667-5.333-60-8h-12c-16-2.667-24 1.333-24 12zM5724 549.778c0-5.333-1.333-13.333-4-24-2.667-18.667-5.333-33.333-8-44 18.667 5.333 44 14.667 76 28 37.334 16 64 26.667 80 32-8 21.333-33.333 32-76 32-21.333-2.667-44-10.667-68-24zM5752 401.778h12c16 5.333 30.667 21.333 44 48-26.667-13.333-58.666-32-96-56v-36c16 2.667 30.667 8 44 16-5.333 2.667-10.667 6.667-16 12-2.667 10.667 1.333 16 12 16zM5712 441.778v-24c26.667 21.333 56 40 88 56-29.334-8-58.666-18.667-88-32zM5612 313.778l24 12c10.667 2.667 18.667 5.333 24 8v24c-5.333-5.333-14.667-13.333-28-24l-20-20zM7120 409.778c-2.667-13.333-9.333-21.333-20-24-109.334 5.333-239.999-32-392-112v-36c-2.667-16-4-28-4-36-21.333-128.001-53.333-194.667-96-200-32 13.333-66.666 24-104 32-5.333-2.667-9.333-1.333-12 4 2.667 8 6.667 12 12 12 10.667 0 25.333-1.333 44-4s33.333-4 44-4c26.667 5.333 46.667 65.333 60 180 0 2.667 1.333 6.667 4 12v12c-5.333-2.667-14.667-8-28-16-10.667-5.333-20-10.667-28-16-2.667-2.667-8-5.333-16-8-26.667-10.667-49.333-18.667-68-24-37.334-48-64-100-80-156-2.667-16-12-22.667-28-20-18.667 5.333-28 16-28 32 5.333 37.334 13.333 98.666 24 184 13.333 106.667 22.667 188 28 244-32-50.667-69.333-101.333-112-152-21.333 2.667-34.667 12-40 28 0 2.667-1.333 6.667-4 12-5.333 13.333-13.333 34.666-24 64-2.667 13.333 0 22.667 8 28 10.667 2.667 20-2.667 28-16l20-40c8-13.333 17.333-12 28 4 26.667 40 60 78.666 100 116v28c2.667 32 1.333 56-4 72 0 2.667-1.333 5.333-4 8-10.667 29.334-16 50.667-16 64s16 21.333 48 24c18.667 0 28-9.333 28-28v-124c2.667 2.667 8 6.667 16 12 21.333 13.333 36 20 44 20 18.667-2.667 26.667-10.667 24-24-10.667-34.667-22.667-53.333-36-56l-48 4c-16-154.667-30.667-280-44-376 29.333 42.667 58.666 92 88 148 5.333 5.333 10.667 8 16 8 5.333-2.667 6.667-8 4-16 0-24 10.667-32 32-24 8 2.667 21.333 9.333 40 20 13.333 8 25.333 14.667 36 20 2.667 16 4 45.333 4 88 2.667 37.334 4 66.667 4 88-8-5.333-18.667-13.333-32-24-16-13.333-28-22.667-36-28-18.667-2.667-29.333 5.333-32 24 0 32 6.667 48 20 48 2.667 0 5.333-1.333 8-4 8-5.333 13.333-8 16-8 16 16 34.667 29.333 56 40 5.333 85.334 8 170.666 8 256v20c0 2.667-2.667 4-8 4-8 0-18.667-6.667-32-20l-8-8c-8 2.667-14.667 13.333-20 32v8c16 26.667 50.666 40 104 40 21.333 0 32-9.333 32-28 0-5.333-2.667-14.667-8-28-5.333-10.667-8-20-8-28-2.667-24-4-58.666-4-104-2.667-48-4-84-4-108 10.667 5.333 28 14.667 52 28 8 5.333 13.333 9.333 16 12 0 2.667 1.333 6.667 4 12 8 18.667 18.667 28 32 28 8 0 17.333-4 28-12 13.333-8 24-12 32-12 5.333 0 10.667-1.333 16-4 21.333 0 30.667-10.667 28-32 0-2.667-10.667-18.666-32-48-13.333-21.333-21.333-34.667-24-40-10.667-40-26.667-76-48-108 45.334 16 94.666 32 148 48-2.667 2.667-9.333 5.333-20 8-13.333 5.333-20 10.667-20 16 0 8 5.333 12 16 12 16 0 42.666-2.667 80-8 21.333-5.333 36-8 44-8h4c29.334-5.333 44-16 44-32zM6720 509.778c0-64-2.667-128-8-192l64 32c29.334 85.334 52 149.333 68 192 5.333 8 6.667 14.667 4 20-8 2.667-16 2.667-24 0-37.334-10.667-72-28-104-52zM7020 9.778c-10.667 0-24 8-40 24-40 34.667-89.333 64-148 88-29.334 5.333-38.667 14.667-28 28 2.667 10.667 16 13.333 40 8s50.666-16 80-32c82.667-32 121.333-64 116-96 0-16-6.667-22.667-20-20zM7516 109.778c10.667 0 36-14.667 76-44 26.667-13.333 46.667-20 60-20 10.667 8 17.333 20 20 36v156c-64-24-125.333-52-184-84-2.667-2.667-6.667-5.333-12-8-13.333-8-25.333-12-36-12-16 0-25.333 8-28 24 0 10.667 2.667 26.667 8 48 2.667 10.667 4 18.667 4 24 8 29.334 12 58.667 12 88-8-2.667-21.333-9.333-40-20-29.333-18.667-49.333-28-60-28-13.333 2.667-20 9.333-20 20 13.333 37.334 29.333 60 48 68 5.333 0 10.667-2.667 16-8s9.333-8 12-8c2.667 0 5.333 1.333 8 4s5.333 4 8 4c50.667 26.667 70.667 86.666 60 180-2.667 21.333-16 38.667-40 52-16 5.333-24 16-24 32 0 5.333 4 12 12 20 8 2.667 21.333 6.667 40 12 18.667 2.667 32 6.667 40 12 53.334 40 105.333 78.666 156 116 8 5.333 10.667 12 8 20-5.333 2.667-8 8-8 16 2.667 13.333 9.333 21.333 20 24 5.333 0 16-4 32-12 8-5.333 14.667-8 20-8h12c26.667-2.667 40-13.333 40-32 5.333-13.333-14.666-26.667-60-40-34.667-8-86.666-36-156-84-18.667-13.333-32-22.667-40-28-8-8-12-16-12-24 8-61.334 12-122.666 12-184 24 10.667 68 33.333 132 68 0 21.333-1.333 33.333-4 36 0 2.667-5.333 5.333-16 8h-8c-5.333-2.667-9.333-4-12-4-13.333 0-20 6.667-20 20 2.667 18.667 32 29.333 88 32 21.333 0 30.667-20 28-60 21.333 8 53.333 21.333 96 40 64 29.334 130.666 46.667 200 52 18.667-2.667 29.333-14.667 32-36 0-16-4-24-12-24-48 5.333-93.333 2.667-136-8-37.334-8-96-32-176-72 0-13.333 1.333-34.666 4-64 5.333-50.667 8-86.667 8-108 69.334 21.333 137.333 24 204 8 48-13.333 89.333-37.333 124-72 18.667-24 21.333-42.667 8-56-16-8-56-17.333-120-28-21.333-8-42.667-13.333-64-16-13.333 0-20 2.667-20 8 0 2.667 5.333 8 16 16 2.667 0 5.333 1.333 8 4 5.333 2.667 17.333 8 36 16 42.667 16 64 28 64 36 2.667 5.333-1.333 10.667-12 16 10.667-2.667 9.333-1.333-4 4-80 34.667-158.666 40-236 16 5.333-128.001-8-213.333-40-256-5.333-13.333-16-13.333-32 0-26.667 18.667-54.667 36-84 52-37.334 26.667-56 46.667-56 60zM7476 277.778c0-8-1.333-18.667-4-32-2.667-16-4-28-4-36-2.667-10.667 2.667-14.667 16-12 74.667 40 134.666 68 180 84 2.667 56 0 110.666-8 164-77.334-37.334-144-76-200-116 13.333-13.333 20-30.667 20-52zM8828 213.778c-34.667-48-72-72-112-72-8 0-12 2.667-12 8v4c40 16 73.333 52 100 108-24 45.334-48 94.666-72 148-8-18.667-21.333-52-40-100-26.667-66.667-48-114.666-64-144-2.667-5.333-8-12-16-20-16-24-25.333-36-28-36-21.333 0-40 26.666-56 80-2.667 8-4 13.333-4 16-5.333 21.333-6.667 33.333-4 36v8c13.333-2.667 25.333-16 36-40 5.333-16 10.667-25.333 16-28 13.333 2.667 29.333 29.333 48 80 5.333 13.333 13.333 36 24 68 13.333 29.334 21.333 50.667 24 64-45.334-16-94.666-44-148-84-21.333-90.667-58.666-156-112-196-10.667-8-22.667-13.333-36-16-24 5.333-37.333 13.333-40 24 0 8 4 22.667 12 44 2.667 8 4 13.333 4 16 2.667 5.333 13.333 28 32 68 5.333 10.667 9.333 17.333 12 20 5.333 13.333 13.333 20 24 20 0-21.333-6.667-49.333-20-84-2.667-8-4-13.333-4-16l-4-4c-8-13.333-8-21.333 0-24 50.667 29.334 78.667 105.333 84 228 0 16-1.333 40-4 72-5.333 32-8 56-8 72 0 53.334 17.333 80 52 80 0-5.333-1.333-13.333-4-24s-4-20-4-28c0-8 1.333-16 4-24v-4c56 21.333 104 48 144 80-8 29.334-24 77.333-48 144l-24 72c-2.667 10.667-16 16-40 16s-37.333-12-40-36h-8c-5.333 0-8 9.333-8 28 5.333 24 22.667 38.667 52 44h56c16 0 26.667-18.666 32-56 2.667-5.333 4-9.333 4-12 32-82.667 56-140 72-172 18.667 10.667 46.666 28 84 52 29.334 21.333 52 36 68 44 16 16 29.333 16 40 0 2.667-16-2.667-26.667-16-32-88-45.334-137.333-92-148-140 34.667-98.667 68-180 100-244 29.333 69.334 46.667 125.333 52 168 0 2.667-5.333 8-16 16-24 13.333-36 25.333-36 36s8 16 24 16c48-16 76-32 84-48 2.667-26.667-22.666-107.999-76-244 66.667-128.001 154.666-210.666 264-248 5.333 0 9.333 2.667 12 8 8 45.334 12 94.666 12 148 8 0 13.333-9.333 16-28 8-34.667 13.333-70.666 16-108v-8c2.667-42.667-6.667-68-28-76-16-2.667-37.333 4-64 20-5.333 2.667-9.333 4-12 4-96 45.334-178.666 123.999-248 236zM8664 581.778c-48-40-98.666-66.667-152-80 5.333-24 8-65.333 8-124 53.334 50.667 104 112 152 184 0 5.333-2.667 12-8 20zM8864 805.778c-96 13.333-146.667 25.333-152 36 2.667 8 12 13.333 28 16 2.667 2.667 5.333 4 8 4h116c21.333-2.667 33.333-12 36-28-5.333-16-17.333-25.333-36-28zM8712 461.778c-2.667 2.667-8 14.667-16 36-2.667 10.667-5.333 18.667-8 24-24-34.667-52-70.666-84-108 42.667 13.333 78.666 29.333 108 48zM9828 225.778c-45.334-58.667-118.666-118.666-220-180-26.667-5.333-40 4-40 28 32 98.667 49.333 206.666 52 324-101.334-56-170.666-88-208-96-13.333 0-22.667 6.667-28 20-2.667 18.667-4 37.333-4 56-2.667 18.667 4 26.667 20 24 8 0 14.667-8 20-24 2.667-18.667 8-28 16-28 72 26.667 134.666 57.333 188 92 0 8 1.333 32 4 72v60c0 72-2.667 122.666-8 152-21.333 2.667-34.667 5.333-40 8-13.333 8-20 14.667-20 20 0 2.667 2.667 5.333 8 8s8 5.333 8 8c8 0 18.667 1.333 32 4h28c16 0 25.333-6.667 28-20 0-13.333 1.333-36 4-68v-68c61.334 45.334 106.667 84 136 116 0 5.333-2.667 10.667-8 16s-8 9.333-8 12c2.667 8 9.333 14.667 20 20 5.333 0 12-2.667 20-8s13.333-8 16-8c2.667-2.667 8-4 16-4 16-2.667 24-10.667 24-24s-12-26.667-36-40c-8-2.667-13.333-5.333-16-8-29.334-21.333-73.333-49.333-132-84-13.333-8-22.667-13.333-28-16v-64c-2.667-32-4-54.667-4-68 40 18.667 73.333 32 100 40h4c16 8 21.333 17.333 16 28 34.667-2.667 61.333 1.333 80 12 2.667 0 6.667 2.667 12 8 10.667 5.333 20 8 28 8 18.667 0 28-6.667 28-20 0-16-8-24-24-24-88-24-160-49.333-216-76 130.667-101.334 241.333-161.333 332-180 37.334-5.333 85.333-9.333 144-12 24 0 36-5.333 36-16s-8-18.667-24-24c-34.667-2.667-74.666-4-120-4h-52c-48 13.333-102.666 38.667-164 76-8-24-14.667-40-20-48zM9832 285.778c-21.333 13.333-53.333 36-96 68-32 24-54.667 41.333-68 52-2.667-96-16-197.333-40-304 64 37.334 132 98.666 204 184z" />
<glyph unicode="&#xe934;" glyph-name="img_logo" horiz-adv-x="1213" d="M0 960h1212.632v-1022.701h-1212.632v1022.701z" />
<glyph unicode="&#xe935;" glyph-name="icon_personal_collection" d="M963.842 550.956c-33.709 103.003-238.405 115.1-256.196 115.937l-1.238 3.851c0 0-82.996 207.41-196.254 207.41-104.24 0-180.768-175.645-192.328-203.688l-2.75-3.819c-17.691-1.14-222.489-16.688-256.161-119.691-35.785-109.536 131.281-247.182 136.241-251.068-0.639-2.347-55.556-215.688 35.82-281.592 91.371-65.944 278.478 52.135 280.487 53.373 1.979-1.238 189.111-119.317 280.456-53.373 91.878 66.309 35.785 281.627 35.785 281.627v0.098c4.489 3.385 173.165 137.682 136.138 250.934zM195.28 299.799c0 0.124 0 0.124-0.124 0.124l0.124-0.124zM779.756 317.246l5.026-11.995c0 0 63.593-191.964-19.065-251.676-82.229-59.339-252.413 64.503-254.187 65.678-1.81-1.175-173.871-123.008-256.095-63.633-82.229 59.344-10.587 256.764-10.051 258.912-4.458 3.482-177.521 123.739-145.29 222.318 30.293 92.745 223.597 96.197 239.513 97.24l2.51 3.482c10.39 25.196 75.557 203.090 169.413 203.090 101.964 0 168.102-207.615 168.102-207.615l1.14-3.451c15.983-0.767 216.057-0.030 246.381-92.745 33.304-101.928-143.378-216.521-147.397-219.604z" />
<glyph unicode="&#xe936;" glyph-name="icon_personal_data" d="M508.96 893.336c-238.421 0-432.32-192.892-432.32-429.979s193.882-429.979 432.32-429.979c238.369 0 432.234 192.892 432.234 429.979s-193.865 429.979-432.234 429.979zM508.96-16.055c-265.792 0-482.021 215.033-482.021 479.395 0 264.328 216.212 479.43 482.021 479.43 265.792 0 481.934-215.101 481.934-479.43 0-264.363-216.143-479.395-481.934-479.395zM364.494 568.598c0 79.242 64.789 143.682 144.459 143.682s144.459-64.441 144.459-143.682c0-79.242-64.789-143.682-144.459-143.682s-144.459 64.441-144.459 143.682zM774.64 223.477c-26.938 84.083-91.034 148.076-170.964 176.626 59.28 33.099 99.418 96.213 99.418 168.494 0 106.482-87.084 193.116-194.142 193.116s-194.16-86.633-194.16-193.116c0-72.436 40.329-135.67 99.817-168.718-74.785-27.017-136.664-85.238-166.009-161.326-4.92-12.716 1.455-27.017 14.274-31.893 12.733-4.928 27.18 1.378 32.083 14.198 33.798 87.443 119.756 146.198 213.995 146.198 100.215 0 187.958-63.752 218.36-158.587 3.343-10.51 13.166-17.265 23.664-17.265 2.495 0 5.006 0.431 7.553 1.189 13.096 4.187 20.303 18.057 16.111 31.083z" />
<glyph unicode="&#xe937;" glyph-name="icon_personal_follow" d="M511.84 70.273h-0.005c-5.38 0-10.534 2.12-14.322 5.89l-121.875 121.295c-1.555 1.544-158.396 157.107-180.878 179.292-66.346 65.473-105.311 138.948-112.688 212.483-7.34 73.223 18.316 142.857 72.244 196.075 52.868 52.167 117.287 74.027 186.281 63.232 57.245-8.964 116.128-40.159 171.243-90.55 55.115 50.392 113.999 81.586 171.243 90.55 68.999 10.809 133.418-11.060 186.281-63.232 53.928-53.218 79.585-122.853 72.245-196.075-7.377-73.534-46.343-147.009-112.69-212.483-49.084-48.434-300.232-298.081-302.762-300.596-3.787-3.766-8.942-5.881-14.317-5.881zM306.262 811.44c-45.424 0-86.835-18.187-123.416-54.292-45.876-45.269-66.836-101.978-60.618-163.992 6.44-64.265 41.392-129.362 101.067-188.251 22.514-22.218 179.388-177.819 180.972-179.386l107.582-107.069c54.291 53.957 246.248 244.723 288.534 286.454 59.676 58.889 94.627 123.986 101.067 188.251 6.223 62.014-14.741 118.723-60.618 163.997-43.973 43.39-94.919 60.912-151.427 52.060-53.749-8.416-110.216-40.55-163.301-92.935-3.782-3.734-8.913-5.835-14.265-5.835s-10.482 2.102-14.265 5.835c-53.085 52.385-109.551 84.52-163.3 92.935-9.498 1.488-18.835 2.227-28.013 2.227z" />
<glyph unicode="&#xe938;" d="M1024 448c0-282.77-229.23-512-512-512s-512 229.23-512 512c0 282.77 229.23 512 512 512s512-229.23 512-512z" />
<glyph unicode="&#xe939;" d="M358.676 609.488c0 86.83 70.656 157.463 157.521 157.463 86.862 0 157.521-70.633 157.521-157.463 0-86.835-70.658-157.459-157.521-157.459-86.865 0-157.521 70.624-157.521 157.459zM226.623 204.962c3.403 37.999 21.756 172.638 162.814 244.747 34.984-27.297 78.937-43.732 126.76-43.732 48.085 0 92.274 16.603 127.353 44.178 141.668-71.805 158.77-205.502 162.221-245.19-0.839-0.807-578.31-0.066-579.148-0.003z" />
<glyph unicode="&#xe93a;" glyph-name="icon_personal_homepage" d="M852.588-15.219h-682.050c-34.75 0-62.748 28.055-62.748 62.884v756.507c0 34.827 27.998 62.879 62.748 62.879h32.343c8.208 0 14.482-6.287 14.482-14.507 0-8.225-6.274-14.512-14.482-14.512h-32.343c-18.823 0-33.789-14.996-33.789-33.859v-756.507c0-18.867 14.965-33.859 33.789-33.859h682.050c18.827 0 33.789 14.992 33.789 33.859v756.507c0 18.863-14.962 33.859-33.789 33.859h-40.547c-8.202 0-14.477 6.287-14.477 14.512 0 8.22 6.275 14.507 14.477 14.507h40.547c34.755 0 62.753-28.051 62.753-62.879v-756.507c0-34.829-28.481-62.884-62.753-62.884zM682.678 772.246h-342.709c-34.756 0-62.753 28.056-62.753 62.884v34.827c0 34.823 27.997 62.879 62.753 62.879h342.709c34.755 0 62.753-28.056 62.753-62.879v-34.827c0-34.827-27.998-62.884-62.753-62.884zM339.969 903.816c-18.828 0-33.793-14.996-33.793-33.859v-34.827c0-18.867 14.965-33.859 33.793-33.859h342.709c18.828 0 33.789 14.992 33.789 33.859v34.827c0 18.863-14.961 33.859-33.789 33.859h-342.709zM570.952 394.845c53.483 23 90.949 76.243 90.949 138.262 0 83.060-67.193 150.393-150.081 150.393s-150.081-67.333-150.081-150.393c0-62.040 37.492-115.302 91.009-138.286-121.553-26.189-213.811-131.402-220.587-259.339h0.235c0-6.921 5.597-12.533 12.507-12.533 6.907 0 12.507 5.612 12.507 12.533 0 0.504-0.040 1-0.098 1.493 8.543 133.458 119.259 239.056 254.599 239.056 135.372 0 246.11-105.653 254.602-239.16-0.049-0.456-0.080-0.921-0.080-1.389 0-6.921 5.6-12.533 12.507-12.533s12.507 5.612 12.507 12.533h0.211c-6.779 127.98-99.096 233.218-220.706 259.364zM386.753 533.106c0 69.218 55.993 125.328 125.067 125.328s125.067-56.113 125.067-125.328c0-69.219-55.993-125.328-125.067-125.328s-125.067 56.109-125.067 125.328z" />
<glyph unicode="&#xe93b;" glyph-name="icon_personal_newsremind" d="M945.123 134.419h-289.044c0-79.828-64.7-144.523-144.523-144.523-79.829 0-144.524 64.696-144.524 144.523h-289.048c-13.3 0-24.089 10.79-24.089 24.089 0 13.294 10.789 24.084 24.089 24.084h96.347v289.048c0 194.289 125.905 354.543 289.48 381.083-0.117 1.449-0.432 2.846-0.432 4.313 0 26.619 21.557 48.176 48.177 48.176 26.615 0 48.171-21.557 48.171-48.176 0-1.467-0.314-2.864-0.432-4.313 163.576-26.54 289.48-186.794 289.48-381.083v-289.048h96.348c13.298 0 24.087-10.79 24.087-24.084 0-13.298-10.789-24.089-24.087-24.089zM511.555 38.067c53.208 0 96.347 43.143 96.347 96.352h-192.7c0-53.208 43.143-96.352 96.353-96.352zM800.598 471.639c0 186.245-129.418 337.225-289.043 337.225-159.631 0-289.049-150.979-289.049-337.225v-289.048h578.092v289.048z" />
<glyph unicode="&#xe93c;" glyph-name="icon_personal_order" d="M471.989 29.817h-269.817c-42.649 0-77.611 36.552-77.611 81.913v735.89h621.721c42.739 0 77.762-36.708 77.762-82.054v-307.518c0-12.184 9.75-22.103 21.852-22.103 12.056 0 21.852 9.919 21.852 22.15v307.361c0.090 69.635-54.238 126.165-121.421 126.369h-665.484v-780.142c-0.045-69.542 54.253-125.947 121.33-126.072h269.817c12.147 0 21.867 9.919 21.867 22.15-0.196 12.34-9.961 22.197-21.867 22.056zM759.869 411.368c-125.43 0-227.134-95.305-227.134-212.893 0-117.559 101.704-212.908 227.134-212.908 125.446 0 227.15 95.35 227.15 212.908 0 117.589-101.704 212.893-227.15 212.893zM759.869 28.148c-100.341 0-181.732 76.241-181.732 170.327s81.391 170.312 181.732 170.312c100.341 0 181.717-76.226 181.717-170.312s-81.375-170.327-181.717-170.327zM760.276 709.47h-519.419c-5.951 0.060-11.683-2.152-15.943-6.154s-6.687-9.464-6.766-15.182c0-11.736 10.211-21.246 22.709-21.246h519.419c12.607 0 22.709 9.509 22.709 21.291-0.157 11.887-10.336 21.426-22.709 21.291zM757.739 581.725h-519.387c-5.967 0.075-11.699-2.137-15.959-6.139-4.276-4.017-6.703-9.479-6.766-15.197 0-11.736 10.195-21.246 22.724-21.246h519.387c12.576 0 22.724 9.509 22.724 21.291-0.157 11.902-10.336 21.426-22.724 21.291zM890.297 276.64c-8.943 8.306-23.147 8.306-32.105 0l-131.585-123.321-64.258 60.186c-8.927 8.336-23.163 8.336-32.090 0-4.275-3.942-6.672-9.359-6.672-15.031s2.396-11.119 6.672-15.031l64.195-60.231c17.932-16.687 46.373-16.687 64.305 0l131.538 123.321c4.26 3.942 6.672 9.374 6.672 15.047 0 5.688-2.412 11.119-6.672 15.062z" />
<glyph unicode="&#xe93d;" glyph-name="icon_personal_setup" d="M512.135 252.243c101.699 0 181.154 82.786 181.154 184.669 0 101.887-82.63 184.668-181.154 184.668-101.703 0-181.158-82.781-181.158-184.668 0-101.883 82.63-184.669 181.158-184.669zM512.135 303.187c-73.101 0-133.482 60.496-133.482 133.725 0 73.233 60.382 133.724 133.482 133.724 73.097 0 133.484-60.491 133.484-133.724 0-73.229-60.387-133.725-133.484-133.725zM250.941 107.398c34.96-28.654 73.102-50.944 111.238-66.865 41.319 38.211 95.347 60.496 149.376 60.496 57.205 0 108.057-22.285 149.375-60.496 41.313 15.921 79.455 38.211 111.234 66.865-12.711 54.127-3.177 111.435 22.249 162.379 28.604 47.762 73.097 85.967 127.126 101.888 3.181 22.285 6.358 44.574 6.358 66.859 0 22.29-3.177 44.575-6.358 66.865-54.029 15.921-98.522 54.127-127.126 101.883-28.602 47.762-34.96 108.258-22.249 162.384-34.961 28.654-73.097 50.939-111.234 66.859-41.318-38.205-92.17-60.495-149.375-60.495-54.029 0-108.057 22.29-149.376 60.495-41.318-15.92-79.455-38.205-111.238-66.859 12.715-54.127 3.181-111.44-22.245-162.384-28.602-47.757-73.097-85.963-127.131-101.883-3.176-22.29-6.353-44.575-6.353-66.865 0-22.285 3.177-44.574 6.353-66.859 54.034-15.921 98.529-54.127 127.131-101.888 25.425-50.944 34.96-108.253 22.245-162.379v0zM362.178-7.224c-54.028 19.102-104.88 47.757-149.375 89.15-6.358 6.369-9.535 15.92-6.358 22.285 15.892 47.762 9.535 98.706-15.892 140.093-25.42 44.575-63.562 73.234-111.234 82.786-9.533 3.181-15.891 9.551-15.891 19.102-6.358 28.654-9.535 60.496-9.535 89.15s3.177 57.308 9.535 89.15c3.176 9.551 9.533 15.92 15.891 19.102 47.672 12.738 88.989 41.392 111.234 82.781 25.427 44.574 28.607 92.337 15.892 140.093-3.177 9.552 0 19.104 6.358 22.29 44.495 38.206 95.347 66.86 149.375 89.15 9.535 3.181 15.892 0 22.245-6.369 34.96-35.025 79.455-57.31 127.131-57.31 47.67 0 95.345 19.104 127.125 57.31 6.358 6.369 15.892 9.551 22.25 6.369 54.028-19.104 104.88-47.763 149.375-89.15 6.353-6.369 9.535-15.921 6.353-22.29-15.886-47.757-9.533-98.701 15.892-140.093 25.427-44.575 63.562-73.229 111.239-82.781 9.533-3.183 15.892-9.552 15.892-19.102 6.353-28.655 9.533-60.496 9.533-89.15s-3.181-57.313-9.533-89.15c-3.182-9.552-9.535-15.921-15.892-19.102-47.676-12.738-88.989-41.392-111.239-82.786-25.425-44.575-28.602-92.332-15.892-140.093 3.182-9.552 0-19.104-6.353-22.285-44.495-38.206-95.347-66.865-149.375-89.15-9.535-3.186-15.892 0-22.25 6.369-34.96 35.018-79.455 57.308-127.125 57.308-47.676 0-95.347-19.102-127.131-57.308-3.176-3.186-9.533-6.369-15.887-6.369h-6.358z" />
<glyph unicode="&#xe93e;" glyph-name="icon_required_red" d="M431.655 932.903h181.484l-42.535-411.175 343.119 243.87 90.742-153.127-382.818-172.977 382.818-172.977-90.742-155.963-343.119 241.034 42.535-411.175h-181.484l42.535 411.175-340.283-241.034-90.742 155.963 388.49 172.977-388.49 172.977 90.742 153.127 340.283-243.87z" />
</font>
</defs>
</svg>
